<?xml version="1.0" standalone="no"?>
<!DOCTYPE svg PUBLIC "-//W3C//DTD SVG 1.1//EN" "http://www.w3.org/Graphics/SVG/1.1/DTD/svg11.dtd">
<svg xmlns="http://www.w3.org/2000/svg">
<defs >
<font id="Dosis" horiz-adv-x="435" ><font-face
    font-family="Dosis ExtraLight"
    units-per-em="1000"
    panose-1="0 0 0 0 0 0 0 0 0 0"
    ascent="1027"
    descent="-237"
    alphabetic="0" />
<glyph unicode=" " horiz-adv-x="200" />
<glyph unicode="!" horiz-adv-x="193" d="M96 147Q91 147 86 151T81 163Q81 253 79 346T73 533T70 717Q70 732 77 740T96 748Q107 748 115 740T123 717Q123 627 121 534T115 347T112 163Q112 156 107 152T96 147ZM97 -6Q81 -6 71 5T61 30Q61 45 71 55T97 66Q111
66 121 56T132 30Q132 16 122 5T97 -6Z" />
<glyph unicode="&quot;" horiz-adv-x="255" d="M187 581Q180 581 177 586T173 599L163 751Q163 759 171 763T187 768Q195 768 203 764T212 751L202 599Q202 592 199 587T187 581ZM67 581Q60 581 57 586T53 599L43 751Q43 759 51 763T67 768Q75 768 83 764T92 751L82
599Q82 592 79 587T67 581Z" />
<glyph unicode="#" horiz-adv-x="547" d="M140 36Q133 36 128 41T123 55L154 268H50Q40 268 36 272T32 283Q32 289 35 293T44 298H160L186 475H81Q71 475 67 479T63 491Q63 497 66 501T75 505H191L221 703Q222 708 225 710T233 713Q243 713 247 707T252 693L223
505H358L388 703Q389 708 392 710T400 713Q410 713 414 707T419 693L390 505H497Q503 505 509 502T516 490Q516 485 512 480T503 475H386L359 298H466Q472 298 478 294T485 282Q485 277 481 273T472 268H354L322 51Q321 44 316 40T305 36Q301 36 297 38T291 45T289
55L321 268H187L155 52Q154 43 150 40T140 36ZM192 298H326L353 475H219L192 298Z" />
<glyph unicode="$" horiz-adv-x="484" d="M256 -52Q249 -52 244 -47T238 -35V4Q174 4 131 23T66 67T44 105Q44 110 47 115T54 123T61 126Q68 126 77 113T103 83T153 53T238 40V375Q205 386 174 398T118 429T77 479T62 558Q62 605 78 635T120 684T177 710T238 720V751Q238
758 243 763T256 768Q263 768 268 763T274 751V721Q303 720 328 715T374 702T405 686T417 669Q417 665 415 660T408 651T399 647Q393 647 379 655T339 673T274 684V402Q304 391 333 377T385 340T421 282T435 195Q435 105 390 60T274 6V-35Q274 -42 269 -47T256
-52ZM274 43Q336 52 367 90T399 192Q399 245 382 277T336 329T274 362V43ZM238 414V684Q203 682 171 671T119 633T98 561Q98 514 117 486T169 443T238 414Z" />
<glyph unicode="%" horiz-adv-x="741" d="M179 -20Q173 -20 168 -16T163 -5Q163 1 165 4L556 760Q560 768 569 768Q575 768 581 763T587 749Q587 744 584 738L196 -9Q193 -15 189 -17T179 -20ZM161 362Q112 362 79 386T46 469V624Q46 682 79 706T161 731Q194 731
220 721T261 687T276 624V469Q276 430 261 407T220 373T161 362ZM161 393Q199 393 221 411T243 469V624Q243 663 221 681T161 700Q123 700 102 682T80 624V469Q80 430 101 412T161 393ZM580 -3Q531 -3 498 21T465 104V259Q465 317 498 341T580 366Q613 366 639
356T680 322T695 259V104Q695 65 680 42T639 8T580 -3ZM580 28Q618 28 640 46T662 104V259Q662 298 640 316T580 335Q542 335 521 317T499 259V104Q499 65 520 47T580 28Z" />
<glyph unicode="&amp;" horiz-adv-x="595" d="M260 -10Q190 -10 141 19T67 95T41 199Q41 253 62 291T115 356T182 397Q151 434 124 478T96 583Q96 636 119 673T180 729T263 748Q315 748 347 731T395 692T411 661Q411 654 407 650T394 645Q387 645 380 655T360
680T325 705T267 716Q206 716 172 679T138 580Q138 543 150 513T182 455T227 401L450 154Q473 207 480 264T489 359Q489 371 493 375T506 380Q514 380 517 375T521 357Q521 339 518 302T506 218T474 127L571 21Q573 18 574 15T576 10Q576 3 571 -1T560 -6Q557 -6
554 -5T548 0L458 97Q429 51 381 21T260 -10ZM266 25Q330 25 370 52T434 122L203 371Q178 358 149 338T99 285T78 203Q78 157 100 116T164 50T266 25Z" />
<glyph unicode="&apos;" horiz-adv-x="135" d="M67 581Q60 581 57 586T53 599L43 751Q43 759 51 763T67 768Q75 768 83 764T92 751L82 599Q82 592 79 587T67 581Z" />
<glyph unicode="(" horiz-adv-x="278" d="M241 -20Q202 -20 170 -9T115 23T80 74T67 143V591Q67 626 79 657T115 714T170 753T241 768Q248 768 253 763T258 751Q258 744 253 739T241 733Q197 733 166 712T119 659T103 591V143Q103 91 125 63T179 25T241 15Q251
15 254 9T258 -2Q258 -10 253 -15T241 -20Z" />
<glyph unicode=")" horiz-adv-x="278" d="M37 -20Q31 -20 26 -15T20 -2Q20 3 23 9T37 15Q68 15 99 25T153 63T175 143V591Q175 626 159 658T112 712T37 733Q30 733 25 738T20 751Q20 758 25 763T37 768Q76 768 107 754T162 714T198 658T211 591V143Q211 105 199
75T163 23T108 -9T37 -20Z" />
<glyph unicode="*" horiz-adv-x="416" d="M117 407Q113 407 108 409T100 415T96 425Q96 431 100 436L184 546L50 586Q44 588 42 592T39 602Q39 610 44 616T57 622Q58 622 59 622T62 621L195 574L190 714Q190 722 195 726T208 731Q215 731 220 727T226 714L221
573L354 621Q356 622 360 622Q367 622 372 616T377 602Q377 597 374 593T365 586L232 547L317 435Q320 431 320 426Q320 418 314 413T300 407Q297 407 294 408T287 414L208 529L128 413Q126 410 123 409T117 407Z" />
<glyph unicode="+" horiz-adv-x="427" d="M214 107Q207 107 202 112T196 124V267H53Q46 267 41 272T36 284Q36 292 41 297T53 302H196V444Q196 451 201 456T214 462Q222 462 226 457T231 444V302H373Q380 302 385 297T391 284Q391 277 386 272T373 267H231V124Q231
117 227 112T214 107Z" />
<glyph unicode="," horiz-adv-x="162" d="M69 -77Q63 -77 58 -74T53 -64Q53 -59 54 -56L72 -5Q60 -2 53 8T45 30Q45 45 55 55T80 66Q93 66 104 57T116 29Q116 27 116 23T112 8T103 -19T85 -66Q83 -71 79 -74T69 -77Z" />
<glyph unicode="-" horiz-adv-x="395" d="M67 223Q60 223 55 228T50 240Q50 248 55 253T67 258H327Q334 258 339 253T345 240Q345 233 340 228T327 223H67Z" />
<glyph unicode="." horiz-adv-x="161" d="M81 -6Q65 -6 55 5T45 30Q45 45 55 55T81 66Q95 66 105 56T116 30Q116 16 106 5T81 -6Z" />
<glyph unicode="/" horiz-adv-x="468" d="M38 -20Q32 -20 27 -16T22 -5Q22 1 24 4L415 760Q419 768 428 768Q434 768 440 763T446 749Q446 744 443 738L55 -9Q52 -15 48 -17T38 -20Z" />
<glyph unicode="0" horiz-adv-x="521" d="M260 -6Q205 -6 161 14T91 80T65 200V525Q65 600 91 645T161 710T260 731Q315 731 359 711T430 645T456 525V200Q456 125 430 80T360 15T260 -6ZM260 30Q335 30 377 71T420 200V525Q420 612 378 653T260 695Q185 695 143
654T101 525V200Q101 113 143 72T260 30ZM261 330Q248 330 239 339T229 362Q229 375 238 384T261 393Q274 393 283 384T292 362Q292 349 283 340T261 330Z" />
<glyph unicode="1" horiz-adv-x="209" d="M116 0Q109 0 104 4T98 18V639L55 559Q51 552 47 549T37 546Q30 546 25 551T19 563Q19 568 23 575T29 586L95 714Q99 721 103 726T118 731Q125 731 129 727T134 714V18Q134 9 129 5T116 0Z" />
<glyph unicode="2" horiz-adv-x="461" d="M56 0Q50 0 44 5T38 18V115Q38 157 63 192T127 258T210 320T294 384T358 456T383 543Q383 580 366 614T315 672T229 695Q170 695 131 662T92 563Q92 557 88 552T73 546Q63 546 60 552T56 574Q56 618 78 653T140 710T231
731Q289 731 331 705T396 637T419 544Q419 491 394 448T330 370T247 305T163 245T99 184T74 115V36H412Q419 36 424 31T429 18Q429 11 424 6T412 0H56Z" />
<glyph unicode="3" horiz-adv-x="473" d="M230 -6Q181 -6 144 8T82 46T45 96T33 151Q33 168 37 173T49 179Q60 179 64 173T68 158Q68 143 74 121T98 79T146 44T226 30Q303 30 345 71T388 200V219Q388 294 346 331T230 369Q220 369 216 374T211 387Q211 394 215
399T229 405Q276 405 307 419T354 464T370 548Q370 620 339 657T233 695Q187 695 158 682T114 649T93 608T87 570Q87 559 82 553T69 546Q63 546 59 548T53 558T51 576Q51 594 58 620T85 671T141 714T236 731Q287 731 325 714T384 659T406 557Q406 484 381 444T322
386Q366 367 395 327T424 219V200Q424 125 398 80T328 15T230 -6Z" />
<glyph unicode="4" horiz-adv-x="417" d="M307 0Q300 0 295 4T289 18V178H28Q19 178 15 183T11 196Q11 200 12 203T14 208L271 717Q275 725 280 728T291 731Q296 731 299 729T305 724T308 715Q308 710 305 704L57 214H289V448Q289 457 294 461T307 465Q314 465
319 461T325 448V214H384Q393 214 397 209T402 196Q402 189 398 184T384 178H325V18Q325 9 320 5T307 0Z" />
<glyph unicode="5" horiz-adv-x="459" d="M227 -6Q166 -6 122 16T55 76T32 159Q32 170 37 174T49 179Q56 179 62 175T68 161Q68 120 89 91T147 46T227 30Q302 30 344 71T387 200V219Q387 302 345 342T228 383H93Q77 383 73 387T68 397Q68 402 68 406T69 414L87
713Q88 721 92 726T105 731H372Q380 731 383 726T387 713Q387 706 384 701T372 695H123L104 419H228Q283 419 327 400T397 336T423 219V200Q423 125 397 80T327 15T227 -6Z" />
<glyph unicode="6" horiz-adv-x="504" d="M261 -6Q206 -6 162 14T91 80T65 200V525Q65 600 91 645T161 710T260 731Q306 731 342 718T404 682T442 629T456 566Q456 556 451 551T439 546Q432 546 426 550T420 564Q420 604 399 633T341 678T260 695Q185 695 143
654T101 525V351Q127 389 169 407T261 425Q316 425 360 407T430 347T456 229V200Q456 125 430 80T360 15T261 -6ZM261 30Q336 30 378 71T420 200V229Q420 316 378 352T261 389Q188 389 145 355T101 238V200Q101 113 143 72T261 30Z" />
<glyph unicode="7" horiz-adv-x="442" d="M89 0Q84 0 79 1T72 6T69 15Q69 20 72 26L388 646V695H69V564Q69 557 64 552T51 546Q44 546 39 551T33 564V713Q33 720 38 725T51 731H406Q412 731 418 726T424 713V641Q424 639 424 637T422 633L104 10Q99 0 89 0Z" />
<glyph unicode="8" horiz-adv-x="489" d="M245 -6Q190 -6 146 14T75 80T49 200V212Q49 289 78 334T153 398Q115 415 92 453T68 557Q68 624 91 662T155 715T245 731Q295 731 335 716T398 662T422 557Q422 492 399 454T337 398Q384 379 412 334T440 212V200Q440
126 414 81T344 15T245 -6ZM246 30Q320 30 362 72T404 200V212Q404 298 362 338T245 379Q171 379 128 339T85 212V200Q85 113 128 72T246 30ZM245 416Q311 416 348 449T386 557Q386 631 349 663T245 695Q179 695 142 663T104 557Q104 482 141 449T245 416Z" />
<glyph unicode="9" horiz-adv-x="504" d="M244 -6Q198 -6 162 7T100 43T62 96T48 159Q48 170 53 174T65 179Q72 179 78 175T84 161Q84 121 105 92T163 47T244 30Q319 30 361 71T403 200V374Q377 337 335 319T243 300Q188 300 144 318T74 378T48 496V525Q48 600
74 645T144 710T243 731Q298 731 342 711T413 645T439 525V200Q439 125 413 80T343 15T244 -6ZM243 336Q316 336 359 370T403 487V525Q403 612 361 653T243 695Q168 695 126 654T84 525V496Q84 409 126 373T243 336Z" />
<glyph unicode=":" horiz-adv-x="193" d="M97 350Q81 350 71 361T61 386Q61 401 71 411T97 422Q111 422 121 412T132 386Q132 372 122 361T97 350ZM97 -6Q81 -6 71 5T61 30Q61 45 71 55T97 66Q111 66 121 56T132 30Q132 16 122 5T97 -6Z" />
<glyph unicode=";" horiz-adv-x="195" d="M85 -77Q79 -77 74 -74T69 -64Q69 -59 70 -56L88 -5Q76 -2 69 8T61 30Q61 45 71 55T96 66Q109 66 120 57T132 29Q132 27 132 23T128 8T119 -19T101 -66Q99 -71 95 -74T85 -77ZM98 350Q82 350 72 361T62 386Q62 401 72
411T98 422Q112 422 122 412T133 386Q133 372 123 361T98 350Z" />
<glyph unicode="&lt;" horiz-adv-x="395" d="M324 74Q320 74 315 77L40 259Q36 261 33 266T30 277Q30 283 33 288T40 296L315 478Q320 481 324 481Q331 481 337 477T343 464Q343 454 334 449L76 277L334 106Q343 101 343 91Q343 84 337 79T324 74Z" />
<glyph unicode="=" horiz-adv-x="431" d="M90 372Q83 372 78 377T73 389Q73 397 78 402T90 407H340Q347 407 352 402T358 389Q358 382 353 377T340 372H90ZM90 169Q83 169 78 174T73 186Q73 194 78 199T90 204H340Q347 204 352 199T358 186Q358 179 353 174T340 169H90Z" />
<glyph unicode="&gt;" horiz-adv-x="395" d="M71 74Q64 74 58 79T52 91Q52 101 61 106L319 277L61 449Q52 454 52 464Q52 472 58 476T71 481Q76 481 80 478L355 296Q358 294 361 289T365 277Q365 271 362 266T355 259L80 77Q76 74 71 74Z" />
<glyph unicode="?" horiz-adv-x="383" d="M160 147Q154 147 149 151T143 164Q143 224 147 258T159 312T178 345Q195 364 217 384T260 429T296 487T310 565Q310 633 273 673T160 713Q129 713 108 707T74 693T53 679T39 673Q35 673 30 678T25 690Q25 703 45 716T96
738T164 748Q226 748 266 724T325 658T345 566Q345 515 329 479T290 415T243 366T204 325Q191 309 186 287T179 236T177 164Q177 155 172 151T160 147ZM160 -6Q144 -6 134 5T124 30Q124 45 134 55T160 66Q174 66 184 56T195 30Q195 16 185 5T160 -6Z" />
<glyph unicode="@" horiz-adv-x="707" d="M326 -90Q275 -90 228 -72T143 -17T83 80T61 220Q61 311 91 386T188 507T363 552Q459 552 525 516T625 410T659 234Q659 186 650 142T617 69T551 41Q516 41 490 60T457 102Q431 77 406 65T336 52Q301 52 272 62T227 95T210
158Q210 203 233 226T299 258T404 267H453V288Q453 335 428 357T346 379Q313 379 296 374T270 362T253 356Q248 356 244 359T238 366T236 374Q236 386 254 395T300 409T355 414Q399 414 428 399T473 357T488 289V125Q490 104 510 89T553 74Q575 74 589 88T611 127T622
178T625 233Q625 364 560 439T360 515Q285 515 235 491T153 425T109 331T95 221Q95 168 107 119T146 30T219 -32T329 -55Q375 -55 403 -47T449 -30T475 -22Q481 -22 485 -26T490 -36Q490 -44 477 -53T440 -70T387 -84T326 -90ZM334 85Q373 85 399 98T439 130T453
166V233H405Q360 233 324 229T267 209T245 157Q245 118 271 102T334 85Z" />
<glyph unicode="A" horiz-adv-x="521" d="M43 0Q39 0 35 2T28 7T25 16Q25 20 26 22L243 723Q245 731 250 734T261 737Q267 737 272 734T280 723L495 22Q496 20 496 17Q496 13 493 9T486 3T476 0Q471 0 467 3T460 13L409 177H111L61 13Q59 6 54 3T43 0ZM122 213H398L261
661L122 213Z" />
<glyph unicode="B" horiz-adv-x="527" d="M101 0Q93 0 88 5T83 17V713Q83 722 88 726T101 731H251Q309 731 355 719T429 670T456 564Q456 500 433 457T371 396Q402 383 425 362T461 306T474 220V203Q474 128 448 84T378 20T278 0H101ZM119 36H278Q353 36 395 76T438
203V220Q438 307 396 342T278 378H119V36ZM119 414H258Q341 414 380 445T420 564Q420 620 399 648T340 685T253 695H119V414Z" />
<glyph unicode="C" horiz-adv-x="512" d="M272 -6Q219 -6 174 14T103 80T76 200V525Q76 600 103 645T176 710T275 731Q339 731 381 708T445 649T467 574Q467 557 463 552T449 546Q436 546 434 552T431 564Q430 582 424 604T401 647T354 681T274 695Q195 695 154
654T112 525V200Q112 112 154 71T278 30Q328 30 357 43T401 76T422 119T431 161Q432 168 435 173T449 179Q458 179 462 173T467 150Q467 112 445 76T380 17T272 -6Z" />
<glyph unicode="D" horiz-adv-x="550" d="M101 0Q93 0 88 5T83 17V714Q83 721 88 726T101 731H278Q333 731 377 711T448 645T474 525V206Q474 131 448 86T378 21T278 0H101ZM119 36H278Q353 36 395 77T438 206V525Q438 612 396 653T278 695H119V36Z" />
<glyph unicode="E" horiz-adv-x="498" d="M101 0Q94 0 89 4T83 18V713Q83 722 88 726T101 731H457Q466 731 470 726T474 714Q474 707 470 701T457 695H119V384H279Q287 384 291 379T296 365Q296 359 292 354T279 348H119V36H457Q465 36 469 31T474 17Q474 11 470
6T457 0H101Z" />
<glyph unicode="F" horiz-adv-x="489" d="M101 0Q94 0 89 4T83 17V713Q83 722 88 726T101 731H457Q466 731 470 726T474 714Q474 707 470 701T457 695H119V384H279Q287 384 291 379T296 365Q296 359 292 354T279 348H119V17Q119 8 114 4T101 0Z" />
<glyph unicode="G" horiz-adv-x="531" d="M271 -6Q216 -6 172 14T102 80T76 200V525Q76 600 102 645T172 710T271 731Q333 731 376 709T443 650T467 566Q467 556 462 551T449 546Q442 546 437 550T431 564Q425 609 404 638T349 681T271 695Q196 695 154 654T112
525V200Q112 113 154 72T271 30Q346 30 388 71T431 200V348H272Q264 348 260 353T255 366Q255 373 259 378T272 384H450Q458 384 462 379T467 365V200Q467 125 441 80T371 15T271 -6Z" />
<glyph unicode="H" horiz-adv-x="557" d="M101 0Q94 0 89 4T83 18V714Q83 723 88 727T101 731Q108 731 113 727T119 714V397H438V714Q438 723 443 727T456 731Q463 731 468 727T474 714V18Q474 9 469 5T456 0Q449 0 444 4T438 18V361H119V18Q119 9 114 5T101 0Z" />
<glyph unicode="I" horiz-adv-x="202" d="M101 0Q94 0 89 4T83 18V714Q83 723 88 727T101 731Q108 731 113 727T119 714V18Q119 9 114 5T101 0Z" />
<glyph unicode="J" horiz-adv-x="496" d="M222 -6Q161 -6 117 16T50 75T26 159Q26 170 31 174T43 179Q50 179 56 175T62 161Q62 117 83 88T141 44T222 30Q297 30 339 71T381 200V695H222Q214 695 210 701T205 714Q205 720 209 725T222 731H399Q406 731 411 727T417
713V200Q417 125 391 80T321 15T222 -6Z" />
<glyph unicode="K" horiz-adv-x="508" d="M101 0Q94 0 89 4T83 18V714Q83 723 88 727T101 731Q108 731 113 727T119 714V322L442 725Q447 731 456 731Q461 731 465 729T471 722T474 712Q474 710 473 707T470 702L239 415L497 27Q500 23 500 18Q500 13 498 9T491
3T481 0Q477 0 473 2T466 9L215 385L119 265V18Q119 9 114 5T101 0Z" />
<glyph unicode="L" horiz-adv-x="452" d="M101 0Q94 0 89 4T83 18V714Q83 723 88 727T101 731Q108 731 113 727T119 714V36H423Q431 36 434 31T438 18Q438 11 435 6T423 0H101Z" />
<glyph unicode="M" horiz-adv-x="653" d="M101 0Q94 0 89 4T83 18V714Q83 724 88 727T101 731Q108 731 114 724T125 709T132 695L326 313L521 695Q524 700 528 708T539 724T552 731Q560 731 565 728T570 714V18Q570 9 565 5T552 0Q545 0 540 4T534 18V643L345
279Q340 269 336 265T326 260Q322 260 317 264T307 279L119 643V18Q119 9 114 5T101 0Z" />
<glyph unicode="N" horiz-adv-x="557" d="M101 0Q94 0 89 4T83 18V714Q83 724 88 727T101 731Q108 731 114 724T125 709T132 695L438 89V714Q438 723 443 727T456 731Q463 731 468 727T474 714V18Q474 9 469 5T456 0Q446 0 439 13T427 36L119 643V18Q119 9 114 5T101 0Z" />
<glyph unicode="O" horiz-adv-x="543" d="M271 -6Q216 -6 172 14T102 80T76 200V525Q76 600 102 645T172 710T271 731Q326 731 370 711T441 645T467 525V200Q467 125 441 80T371 15T271 -6ZM271 30Q346 30 388 71T431 200V525Q431 612 389 653T271 695Q196 695
154 654T112 525V200Q112 113 154 72T271 30Z" />
<glyph unicode="P" horiz-adv-x="513" d="M101 0Q94 0 89 4T83 18V714Q83 721 88 725T101 731H278Q333 731 377 711T448 645T474 525V513Q474 438 448 393T378 327T278 306H119V18Q119 9 114 5T101 0ZM119 342H278Q353 342 395 384T438 513V525Q438 612 396 653T278
695H119V342Z" />
<glyph unicode="Q" horiz-adv-x="543" d="M272 -109Q265 -109 260 -105T254 -91V-5Q203 -2 163 19T99 84T76 200V525Q76 600 102 645T172 710T271 731Q326 731 370 711T441 645T467 525V200Q467 129 444 85T381 19T290 -5V-91Q290 -100 285 -104T272 -109ZM254
30V114Q254 123 259 127T272 131Q279 131 284 127T290 114V31Q356 36 393 77T431 200V525Q431 612 389 653T271 695Q196 695 154 654T112 525V200Q112 118 149 77T254 30Z" />
<glyph unicode="R" horiz-adv-x="509" d="M456 0Q446 0 439 13T427 36L267 348H119V18Q119 9 114 5T101 0Q94 0 89 4T83 18V714Q83 721 88 725T101 731H268Q323 731 370 714T445 655T474 540Q474 476 452 436T391 376T306 350L471 29Q473 26 473 23T474 18Q474
13 472 9T465 3T456 0ZM119 384H268Q343 384 390 420T438 540Q438 623 391 659T268 695H119V384Z" />
<glyph unicode="S" horiz-adv-x="481" d="M235 -6Q171 -6 128 13T64 57T42 95Q42 100 45 105T52 113T59 116Q66 116 75 103T101 73T148 43T230 30Q285 30 322 48T378 103T397 192Q397 247 379 280T330 333T265 365T193 390T127 421T79 472T60 558Q60 612 79 646T128
698T192 724T257 731Q288 731 316 726T366 714T402 697T415 679Q415 675 413 670T406 661T397 657Q390 657 374 666T330 685T256 695Q219 695 182 684T121 644T96 561Q96 515 114 488T163 444T228 417T300 391T366 355T414 294T433 195Q433 124 408 80T338 15T235
-6Z" />
<glyph unicode="T" horiz-adv-x="455" d="M228 0Q221 0 216 4T210 18V695H32Q24 695 19 700T14 713Q14 720 19 725T32 731H423Q432 731 436 726T441 714Q441 707 437 701T423 695H246V18Q246 9 241 5T228 0Z" />
<glyph unicode="U" horiz-adv-x="549" d="M274 -6Q219 -6 175 14T105 80T79 200V714Q79 723 84 727T97 731Q104 731 109 727T115 714V200Q115 113 157 72T274 30Q349 30 391 71T434 200V714Q434 723 439 727T452 731Q459 731 464 727T470 714V200Q470 125 444
80T374 15T274 -6Z" />
<glyph unicode="V" horiz-adv-x="519" d="M260 -6Q254 -6 249 -3T242 8L25 709Q24 711 24 715Q24 720 26 723T33 729T42 731Q48 731 53 728T60 718L260 70L459 718Q461 725 465 728T475 731Q480 731 484 729T492 723T495 714Q495 713 495 712T494 709L279 8Q277
1 272 -2T260 -6Z" />
<glyph unicode="W" horiz-adv-x="739" d="M242 -6Q236 -6 231 -3T224 8L27 709Q26 712 26 715Q26 721 28 724T35 729T43 731Q49 731 55 728T62 718L242 70L348 455Q351 466 357 469T370 472Q378 472 382 469T390 455L498 70L677 718Q679 724 684 727T696 731Q701
731 704 730T710 725T713 715Q713 712 712 709L517 8Q515 1 510 -2T498 -6Q492 -6 487 -3T480 8L370 400L261 8Q259 1 254 -2T242 -6Z" />
<glyph unicode="X" horiz-adv-x="447" d="M46 0Q41 0 37 2T31 9T28 18Q28 23 31 29L203 366L33 700Q28 710 28 717Q28 722 30 725T36 729T46 731Q57 731 64 719T76 695L223 405L371 695Q376 706 383 718T401 731Q407 731 411 730T417 725T419 717Q419 710 414
700L243 366L416 29Q419 23 419 18Q419 13 417 9T410 3T401 0Q391 0 384 13T372 36L223 327L75 36Q70 26 64 13T46 0Z" />
<glyph unicode="Y" horiz-adv-x="509" d="M254 0Q247 0 242 4T236 18V273Q236 277 235 279L28 695Q25 701 24 706T22 715Q22 720 24 723T28 729T35 731Q40 731 45 727T55 714L254 313L454 714Q459 723 464 727T474 731Q478 731 480 729T484 724T486 715Q486 711
485 706T481 695L273 279Q272 277 272 273V18Q272 9 267 5T254 0Z" />
<glyph unicode="Z" horiz-adv-x="464" d="M45 0Q38 0 33 5T27 17Q27 23 30 29L380 695H55Q46 695 42 700T37 713Q37 720 41 725T55 731H410Q419 731 423 727T428 716Q428 708 423 700L74 36H420Q429 36 433 31T438 18Q438 11 434 6T420 0H45Z" />
<glyph unicode="[" horiz-adv-x="285" d="M92 -21Q85 -21 80 -16T74 -4V751Q74 758 79 763T92 768H248Q255 768 260 763T265 751Q265 744 260 739T248 733H110V14H248Q255 14 260 9T265 -4Q265 -11 260 -16T248 -21H92Z" />
<glyph unicode="\" horiz-adv-x="340" d="M296 0Q291 0 286 2T279 12L29 727Q28 730 28 735Q28 744 33 749T46 754Q51 754 55 752T60 745L312 21Q313 20 313 19T313 15Q313 8 308 4T296 0Z" />
<glyph unicode="]" horiz-adv-x="285" d="M37 -21Q30 -21 25 -16T20 -4Q20 4 25 9T37 14H175V733H37Q30 733 25 738T20 751Q20 758 25 763T37 768H193Q201 768 206 763T211 751V-4Q211 -11 206 -16T193 -21H37Z" />
<glyph unicode="^" horiz-adv-x="260" d="M18 600Q11 600 6 605T0 619Q0 623 2 627T9 633L113 689Q121 694 130 694Q139 694 147 689L251 634Q256 632 258 627T260 617Q260 610 255 606T243 601Q241 601 239 602T234 604L130 659L26 603Q24 602 22 601T18 600Z" />
<glyph unicode="_" horiz-adv-x="345" d="M13 -35Q6 -35 1 -30T-4 -18Q-4 -10 1 -5T13 0H333Q340 0 345 -5T351 -18Q351 -25 346 -30T333 -35H13Z" />
<glyph unicode="`" horiz-adv-x="133" d="M114 601Q112 601 110 602T105 604L10 658Q0 664 0 676Q0 683 4 688T16 694Q19 694 23 692L125 632Q133 628 133 619Q133 612 128 607T114 601Z" />
<glyph unicode="a" horiz-adv-x="423" d="M174 -6Q116 -6 76 26T35 126Q35 179 64 207T146 247T268 258H324V286Q324 324 311 360T269 419T192 443Q161 443 140 437T107 423T88 416Q80 416 75 423T70 436Q70 446 88 455T135 471T194 478Q256 478 292 451T343 380T359
286V18Q359 11 355 6T342 0Q335 0 330 5T324 18V70Q299 41 262 18T174 -6ZM173 29Q211 29 245 47T302 92T324 139V223H269Q218 223 173 217T99 191T70 126Q70 76 100 53T173 29Z" />
<glyph unicode="b" horiz-adv-x="468" d="M240 -6Q194 -6 158 16T104 70V18Q104 11 99 6T86 0Q79 0 74 5T69 18V751Q69 759 74 763T86 768Q94 768 99 764T104 751V402Q121 431 154 454T238 478Q287 478 328 454T393 389T418 298V176Q418 129 394 87T329 20T240
-6ZM242 29Q280 29 312 50T363 105T383 176V298Q383 335 364 368T312 422T241 443Q207 443 176 426T124 376T104 298V139Q104 122 122 96T171 50T242 29Z" />
<glyph unicode="c" horiz-adv-x="402" d="M235 -6Q173 -6 133 18T72 83T52 176V296Q52 347 71 388T132 454T235 478Q275 478 304 468T350 444T366 419Q366 415 364 411T357 405T348 402Q340 402 329 412T296 433T235 443Q163 443 125 404T87 296V176Q87 108 125
69T236 29Q278 29 300 39T334 60T355 70Q360 70 363 68T369 62T372 53Q372 43 356 29T309 5T235 -6Z" />
<glyph unicode="d" horiz-adv-x="468" d="M228 -6Q181 -6 140 19T75 87T50 176V298Q50 348 74 388T140 453T230 478Q280 478 314 455T364 402V751Q364 759 369 763T382 768Q390 768 394 764T399 751V18Q399 11 395 6T382 0Q375 0 370 5T364 18V70Q348 39 311 17T228
-6ZM226 29Q266 29 297 49T346 96T364 139V298Q364 344 344 376T293 425T227 443Q188 443 156 422T105 368T85 298V176Q85 139 104 105T156 50T226 29Z" />
<glyph unicode="e" horiz-adv-x="445" d="M253 -6Q194 -6 149 17T77 80T51 176V301Q51 349 75 389T140 454T229 478Q276 478 316 455T381 391T406 298Q406 262 394 246T364 227T323 223H86V176Q86 108 134 69T255 29Q297 29 319 39T352 60T373 70Q378 70 382 67T388
60T391 52Q391 43 375 29T327 5T253 -6ZM86 258H311Q348 258 359 265T371 295Q371 331 354 365T304 421T229 443Q189 443 157 423T105 371T86 301V258Z" />
<glyph unicode="f" horiz-adv-x="289" d="M85 0Q78 0 74 5T69 17V590Q69 638 93 678T158 743T247 768H257Q265 768 270 763T275 750Q275 743 270 738T257 733H247Q207 733 175 713T124 660T104 590V472H257Q265 472 270 467T275 455Q275 448 270 443T257 437H104V17Q104
10 99 5T85 0Z" />
<glyph unicode="g" horiz-adv-x="446" d="M226 -237Q168 -237 125 -221T57 -176T32 -108Q32 -62 60 -36T123 3Q96 11 79 26T62 74Q62 102 75 117T111 143Q86 165 73 197T59 269V314Q59 362 79 399T135 457T220 478Q257 478 287 466T339 430Q353 456 374 473T414
491Q425 491 430 485T435 471Q435 462 430 457T417 452Q404 452 388 443T357 406Q370 388 376 364T382 314V269Q382 222 362 184T304 125T219 103Q173 103 137 124Q122 117 110 107T97 76Q97 51 120 40T179 25T255 17T331 2T390 -33T413 -102Q413 -145 390 -175T326
-221T226 -237ZM226 -205Q300 -205 339 -177T378 -103Q378 -67 356 -49T299 -23T231 -13T172 -7Q132 -18 100 -40T67 -105Q67 -149 108 -177T226 -205ZM221 138Q280 138 313 175T347 269V314Q347 369 314 406T220 443Q160 443 127 406T94 314V270Q94 214 127 176T221
138Z" />
<glyph unicode="h" horiz-adv-x="482" d="M86 0Q79 0 74 5T69 18V751Q69 759 74 763T86 768Q94 768 99 764T104 751V402Q121 431 154 454T238 478Q287 478 328 454T393 389T418 298V18Q418 9 413 5T400 0Q394 0 389 4T383 18V298Q383 335 364 368T312 422T241
443Q207 443 176 426T124 376T104 298V18Q104 11 99 6T86 0Z" />
<glyph unicode="i" horiz-adv-x="171" d="M86 628Q73 628 64 637T54 660Q54 673 63 682T86 691Q99 691 108 682T117 660Q117 647 108 638T86 628ZM85 0Q78 0 73 5T68 18V455Q68 463 73 467T85 472Q93 472 98 468T103 455V18Q103 11 98 6T85 0Z" />
<glyph unicode="j" horiz-adv-x="173" d="M-18 -237Q-25 -237 -30 -232T-36 -219Q-36 -211 -31 -207T-18 -202Q21 -202 39 -182T63 -127T69 -48V455Q69 463 74 467T86 472Q94 472 99 468T104 455V-48Q104 -103 93 -146T55 -213T-18 -237ZM86 628Q73 628 64 637T54
660Q54 673 63 682T86 691Q99 691 108 682T117 660Q117 647 108 638T86 628Z" />
<glyph unicode="k" horiz-adv-x="437" d="M86 0Q79 0 74 5T69 18V751Q69 759 74 763T86 768Q94 768 99 764T104 751V233L374 468Q380 472 384 472Q389 472 393 471T400 466T403 456Q403 452 402 448T397 441L236 301L421 28Q424 24 424 18Q424 14 422 10T416 3T407
0Q399 0 393 9L209 278L104 186V18Q104 11 99 6T86 0Z" />
<glyph unicode="l" horiz-adv-x="189" d="M94 0Q87 0 82 5T77 18V751Q77 759 82 763T94 768Q102 768 107 764T112 751V18Q112 11 107 6T94 0Z" />
<glyph unicode="m" horiz-adv-x="767" d="M85 0Q78 0 73 5T68 18V455Q68 463 73 467T85 472Q93 472 98 468T103 455V402Q120 431 153 454T237 478Q289 478 328 450T387 378Q413 429 454 453T539 478Q581 478 618 457T679 396T703 298V18Q703 11 698 6T685 0Q678
0 673 5T668 18V298Q668 346 649 378T599 426T538 443Q504 443 474 426T423 377T403 304V17Q403 8 398 4T385 0Q379 0 374 4T368 17V303Q368 343 351 374T304 424T239 443Q206 443 175 426T123 376T103 298V18Q103 11 98 6T85 0Z" />
<glyph unicode="n" horiz-adv-x="481" d="M85 0Q78 0 73 5T68 18V455Q68 463 73 467T85 472Q93 472 98 468T103 455V402Q120 431 153 454T237 478Q286 478 327 454T392 389T417 298V18Q417 9 412 5T399 0Q393 0 388 4T382 18V298Q382 335 363 368T311 422T240
443Q206 443 175 426T123 376T103 298V18Q103 11 98 6T85 0Z" />
<glyph unicode="o" horiz-adv-x="455" d="M227 -6Q180 -6 140 19T75 86T50 176V298Q50 346 74 387T138 453T227 478Q275 478 315 454T380 389T405 298V176Q405 129 381 87T316 20T227 -6ZM227 29Q267 29 299 50T350 105T370 176V298Q370 335 351 368T300 422T227
443Q187 443 155 422T104 368T85 298V176Q85 139 104 105T155 50T227 29Z" />
<glyph unicode="p" horiz-adv-x="468" d="M86 -237Q79 -237 74 -232T69 -219V455Q69 463 74 467T86 472Q94 472 99 468T104 455V402Q121 431 154 454T238 478Q287 478 328 454T393 389T418 298V176Q418 129 394 87T329 20T240 -6Q194 -6 158 16T104 70V-219Q104
-226 99 -231T86 -237ZM242 29Q280 29 312 50T363 105T383 176V298Q383 335 364 368T312 422T241 443Q207 443 176 426T124 376T104 298V139Q104 122 122 96T171 50T242 29Z" />
<glyph unicode="q" horiz-adv-x="468" d="M382 -237Q375 -237 370 -232T364 -219V70Q348 39 311 17T228 -6Q181 -6 140 19T75 87T50 176V298Q50 348 74 388T140 453T230 478Q280 478 314 455T364 402V455Q364 463 369 467T382 472Q390 472 394 468T399 455V-219Q399
-226 395 -231T382 -237ZM226 29Q266 29 297 49T346 96T364 139V298Q364 344 344 376T293 425T227 443Q188 443 156 422T105 368T85 298V176Q85 139 104 105T156 50T226 29Z" />
<glyph unicode="r" horiz-adv-x="308" d="M85 0Q78 0 73 5T68 18V455Q68 463 73 467T85 472Q93 472 98 468T103 455V402Q115 422 134 439T180 467T242 478H279Q286 478 291 473T296 460Q296 453 291 448T279 443H242Q207 443 175 426T123 376T103 298V18Q103 11
98 6T85 0Z" />
<glyph unicode="s" horiz-adv-x="373" d="M184 -6Q139 -6 107 5T56 32T38 59Q38 64 40 67T45 73T52 76Q61 76 73 65T111 41T183 29Q246 29 273 53T300 112Q300 151 282 172T235 205T174 226T113 247T66 283T48 348Q48 378 63 408T111 458T196 478Q226 478 254
472T300 456T318 436Q318 433 316 428T310 420T301 416Q295 416 282 423T248 436T197 443Q155 443 130 428T94 391T83 349Q83 316 101 298T148 270T209 251T270 228T317 187T335 114Q335 59 295 27T184 -6Z" />
<glyph unicode="t" horiz-adv-x="272" d="M212 0Q141 0 104 33T66 139V686Q66 694 71 698T83 703Q90 703 95 699T101 686V472H236Q243 472 248 467T253 454Q253 447 248 442T236 437H101V139Q101 82 126 59T212 35H235Q242 35 247 31T252 18Q252 11 247 6T235 0H212Z" />
<glyph unicode="u" horiz-adv-x="483" d="M242 -6Q193 -6 153 19T88 85T64 174V454Q64 461 69 466T82 472Q89 472 94 467T99 454V174Q99 137 118 104T169 50T242 29Q282 29 314 49T365 103T384 174V455Q384 462 389 467T402 472Q410 472 414 467T419 455V174Q419
126 395 85T331 19T242 -6Z" />
<glyph unicode="v" horiz-adv-x="392" d="M196 -6Q189 -6 185 -3T179 6L23 440Q22 442 21 446T19 454Q19 459 21 463T28 469T37 472Q42 472 47 469T54 461L196 68L337 455Q339 461 341 466T354 472Q359 472 363 470T370 464T373 455Q373 451 372 447T369 440L213
6Q211 1 207 -2T196 -6Z" />
<glyph unicode="w" horiz-adv-x="654" d="M196 -6Q189 -6 186 -3T179 11L23 441Q22 443 21 447T19 454Q19 459 21 463T28 469T37 472Q42 472 47 469T54 461L195 70L310 432Q312 438 316 441T328 445Q335 445 339 442T346 432L457 65L601 461Q604 472 617 472Q622
472 626 470T632 465T635 455Q635 452 634 448T631 441L474 6Q472 -1 468 -3T459 -6Q453 -6 451 -4T445 5L328 380L213 11Q210 2 206 -2T196 -6Z" />
<glyph unicode="x" horiz-adv-x="381" d="M45 -6Q40 -6 36 -4T30 3T27 11Q27 17 30 21L169 238L30 451Q29 453 28 455T27 460Q27 465 29 469T36 475T45 478Q50 478 54 476T60 470L191 270L323 470Q325 474 329 476T337 478Q342 478 346 476T352 470T355 460Q355
456 352 451L212 238L352 21Q354 19 354 17T355 11Q355 7 353 3T346 -3T337 -6Q333 -6 329 -4T323 2L191 205L60 2Q57 -2 54 -4T45 -6Z" />
<glyph unicode="y" horiz-adv-x="395" d="M36 -237Q29 -237 24 -232T19 -220Q19 -213 22 -208T34 -202Q61 -202 82 -183T121 -131T153 -61T180 13L20 455Q18 459 18 461Q18 466 20 469T27 475T37 478Q42 478 47 475T53 467L198 67L342 467Q344 472 348 475T358
478Q363 478 367 476T373 471T376 461Q376 457 375 455L215 13Q202 -24 185 -67T147 -149T98 -212T36 -237Z" />
<glyph unicode="z" horiz-adv-x="385" d="M44 0Q37 0 32 4T26 16Q26 18 27 22T30 28L297 437H54Q47 437 42 442T36 454Q36 462 41 467T54 472H331Q339 472 344 467T349 454Q349 449 346 444L78 35H341Q349 35 354 30T359 17Q359 10 354 5T341 0H44Z" />
<glyph unicode="{" horiz-adv-x="285" d="M248 -20Q199 -20 160 -2T97 51T73 129Q73 139 75 162T80 214T87 271T92 320T94 347Q94 359 85 361T64 364T43 368T34 384Q34 396 43 399T64 403T85 407T94 422Q94 429 91 454T84 510T76 568T73 607Q73 639 86 668T124
719T180 755T248 768Q255 768 260 763T265 751Q265 744 260 739T248 733Q207 733 176 715T127 667T109 604Q109 592 112 566T119 509T127 454T130 422Q130 406 118 396T96 384Q105 381 117 372T130 347Q130 338 127 309T120 243T112 174T109 127Q109 94 124 73T161
38T207 20T248 15Q255 15 258 12T263 6T265 -2Q265 -10 260 -15T248 -20Z" />
<glyph unicode="|" horiz-adv-x="184" d="M92 -21Q85 -21 80 -16T74 -4V751Q74 758 79 763T92 768Q99 768 104 763T110 751V-4Q110 -11 105 -16T92 -21Z" />
<glyph unicode="}" horiz-adv-x="285" d="M37 -20Q31 -20 26 -15T20 -2Q20 2 21 5T26 12T37 15Q54 15 77 20T123 38T161 72T176 127Q176 141 173 173T166 242T158 308T155 347Q155 363 167 372T189 384Q179 386 167 396T155 422Q155 429 158 453T165 508T173 565T176
604Q176 637 159 666T110 714T37 733Q30 733 25 738T20 751Q20 758 25 763T37 768Q73 768 105 755T161 720T198 668T212 607Q212 596 209 569T202 510T194 454T191 422Q191 410 200 407T221 404T242 400T251 384Q251 372 242 369T221 365T200 362T191 347Q191 341
193 321T198 272T205 214T210 162T212 129Q212 85 189 51T126 -1T37 -20Z" />
<glyph unicode="~" horiz-adv-x="400" d="M264 223Q240 223 222 232T183 251T135 260Q114 260 101 252T81 234T66 225Q63 225 60 227T55 233T53 242Q53 252 61 261T84 277T113 289T142 294Q167 294 186 285T224 267T269 257Q292 257 303 265T320 281T334 289Q338
289 341 287T346 282T348 274Q348 262 340 253T318 237T291 227T264 223Z" />
<glyph unicode="&#xa0;" horiz-adv-x="200" />
<glyph unicode="&#xa1;" horiz-adv-x="193" d="M96 -6Q85 -6 78 2T70 25Q70 115 73 208T78 395T81 579Q81 587 86 591T96 595Q101 595 106 591T112 579Q112 489 115 396T120 209T123 25Q123 10 115 2T96 -6ZM97 676Q81 676 71 686T61 712Q61 726 71 737T97 748Q111
748 121 737T132 712Q132 697 122 687T97 676Z" />
<glyph unicode="&#xa2;" horiz-adv-x="406" d="M201 40Q194 40 189 45T183 57V177Q112 188 77 237T41 356V376Q41 421 56 458T102 521T183 555V677Q183 684 188 689T201 694Q208 694 213 689T219 677V558Q257 558 289 550T341 528T361 500Q361 495 358 491T351
484T342 482Q333 482 322 492T287 513T219 523V209Q264 209 287 219T321 240T342 250Q349 250 355 245T361 232Q361 217 340 204T287 182T219 174V57Q219 50 214 45T201 40ZM183 213V519Q129 508 103 471T76 376V356Q76 298 102 261T183 213Z" />
<glyph unicode="&#xa3;" horiz-adv-x="461" d="M43 0Q34 0 30 5T25 18Q25 25 29 30T43 36H106L152 367H66Q59 367 54 372T49 384Q49 392 54 397T66 402H157L184 590Q191 638 220 678T294 743T387 768H399Q409 768 414 763T419 750Q419 744 414 739T399 733H382Q342
733 307 713T248 660T219 590L192 402H355Q363 402 367 397T371 384Q371 378 367 373T355 367H187L140 36H403Q411 36 415 31T419 18Q419 11 415 6T403 0H43Z" />
<glyph unicode="&#xa4;" horiz-adv-x="489" d="M246 290Q213 290 184 302T130 337L97 304Q92 299 85 299Q78 299 73 304T68 316Q68 323 73 328L107 362Q89 385 79 413T69 472Q69 502 79 530T106 581L80 608Q75 613 75 621Q75 629 80 633T93 638Q100 638 105 633L130
607Q153 628 183 640T246 652Q277 652 305 642T356 612L384 640Q389 645 397 645Q404 645 409 640T414 628Q414 620 409 615L381 587Q401 564 412 535T424 472Q424 440 412 411T380 357L409 328Q414 321 414 316Q414 310 409 305T397 299Q389 299 385 304L356 332Q333
313 305 302T246 290ZM246 328Q285 328 316 348T367 402T386 472Q386 508 368 540T317 593T246 614Q207 614 176 594T126 541T107 472Q107 435 125 402T176 349T246 328Z" />
<glyph unicode="&#xa5;" horiz-adv-x="479" d="M236 0Q229 0 224 5T218 17V197H94Q87 197 82 202T77 214Q77 222 82 227T94 232H218V310H94Q87 310 82 315T77 327Q77 335 82 340T94 345H209L29 707Q28 709 28 710T27 714Q27 718 29 722T35 728T45 731Q50 731 54
729T62 721L236 375L420 721Q423 726 427 728T437 731Q442 731 445 729T451 723T453 714Q453 709 452 707L262 345H384Q391 345 396 340T402 327Q402 320 397 315T384 310H253V232H384Q391 232 396 227T402 214Q402 207 397 202T384 197H253V17Q253 10 249 5T236
0Z" />
<glyph unicode="&#xa6;" horiz-adv-x="186" d="M93 452Q86 452 81 457T75 469V751Q75 758 80 763T93 768Q100 768 105 763T111 751V469Q111 462 106 457T93 452ZM93 -21Q86 -21 81 -16T75 -4V278Q75 285 80 290T93 295Q100 295 105 290T111 278V-4Q111 -11 106
-16T93 -21Z" />
<glyph unicode="&#xa7;" horiz-adv-x="461" d="M230 -66Q177 -66 137 -44T74 15T52 99Q52 110 58 114T71 119Q80 119 84 114T88 101Q88 85 94 63T114 19T155 -16T224 -30Q292 -30 329 6T367 113Q367 153 351 177T309 215T251 238T187 259T129 288T86 336T70 415V547Q70
603 85 639T125 695T178 723T233 731Q283 731 317 711T368 656T385 573Q385 560 379 556T366 551Q359 551 353 556T347 576Q347 597 338 625T305 674T235 695Q206 695 176 682T126 637T106 547Q106 507 122 483T164 445T223 421T286 400T344 372T387 324T403 245V115Q403
68 390 34T353 -23T298 -55T230 -66ZM367 210V243Q367 290 348 317T297 358T230 383T162 408T106 449V417Q106 370 125 343T176 301T243 276T312 251T367 210Z" />
<glyph unicode="&#xa8;" horiz-adv-x="170" d="M141 600Q128 600 120 608T111 630Q111 643 119 651T141 659Q154 659 162 651T170 630Q170 617 162 609T141 600ZM30 600Q17 600 9 608T0 630Q0 643 8 651T30 659Q43 659 51 651T59 630Q59 617 51 609T30 600Z" />
<glyph unicode="&#xa9;" horiz-adv-x="728" d="M361 35Q308 35 255 55T156 115T84 216T57 358Q57 442 85 503T160 605T260 665T367 685Q420 685 473 665T572 605T644 504T671 362Q671 278 643 217T568 115T468 55T361 35ZM361 70Q441 70 503 107T600 210T636 362Q636
446 603 511T509 613T367 650Q288 650 226 613T128 511T92 358Q92 275 125 210T220 107T361 70ZM364 168Q324 168 296 194T267 283V450Q267 513 296 539T365 566Q412 566 437 539T463 475Q463 462 459 458T445 453Q436 453 432 457T427 467Q427 479 423 494T405
520T366 532Q303 532 303 450V283Q303 201 367 201Q393 201 405 212T421 239T427 268Q428 275 432 278T445 282Q455 282 459 278T463 260Q463 223 437 196T364 168Z" />
<glyph unicode="&#xaa;" horiz-adv-x="306" d="M130 431Q124 431 118 431T105 432Q77 437 58 456T39 512Q39 562 79 579T184 596H216V611Q216 643 199 671T141 699Q121 699 108 695T88 686T75 681Q68 681 64 687T60 700Q60 708 72 715T104 726T142 731Q183 731
207 714T241 670T252 611V449Q252 443 247 439T234 434Q227 434 222 438T217 449V477Q202 460 181 447T130 431ZM131 461Q152 461 171 471T203 497T216 527V569H185Q157 569 132 566T91 551T75 514Q75 486 91 474T131 461Z" />
<glyph unicode="&#xab;" horiz-adv-x="361" d="M302 74Q292 74 287 83L191 260Q189 264 188 268T186 277Q186 282 187 286T191 294L287 472Q292 481 304 481Q309 481 312 479T318 473T320 464Q320 460 317 455L221 277L317 100Q320 96 320 91Q320 86 318 82T311
76T302 74ZM156 74Q146 74 141 83L45 260Q43 264 42 268T40 277Q40 282 41 286T45 294L141 472Q146 481 158 481Q163 481 166 479T172 473T174 464Q174 460 171 455L75 277L171 100Q174 96 174 91Q174 86 172 82T165 76T156 74Z" />
<glyph unicode="&#xac;" horiz-adv-x="479" d="M389 163Q382 163 377 168T371 180V323H78Q71 323 66 328T61 340Q61 348 66 353T78 358H388Q395 358 400 353T406 340V180Q406 173 402 168T389 163Z" />
<glyph unicode="&#xad;" horiz-adv-x="455" d="M67 223Q60 223 55 228T50 240Q50 248 55 253T67 258H387Q394 258 399 253T405 240Q405 233 400 228T387 223H67Z" />
<glyph unicode="&#xae;" horiz-adv-x="728" d="M361 35Q308 35 255 55T156 115T84 216T57 358Q57 442 85 503T160 605T260 665T367 685Q420 685 473 665T572 605T644 504T671 362Q671 278 643 217T568 115T468 55T361 35ZM361 70Q441 70 503 107T600 210T636 362Q636
446 603 511T509 613T367 650Q288 650 226 613T128 511T92 358Q92 275 125 210T220 107T361 70ZM453 168Q447 168 443 174T436 187L363 349H311V183Q311 176 306 173T293 169Q286 169 281 172T275 183V550Q275 555 278 559T288 564H372Q400 564 422 554T459 521T473
457Q473 407 453 383T403 353L472 194Q474 188 474 187Q474 180 468 174T453 168ZM311 380H372Q401 380 419 397T437 455Q437 496 419 513T372 530H311V380Z" />
<glyph unicode="&#xaf;" horiz-adv-x="0" d="M17 647Q10 647 5 652T0 664Q0 672 5 677T17 682H237Q244 682 249 677T255 664Q255 657 250 652T237 647H17Z" />
<glyph unicode="&#xb0;" horiz-adv-x="429" d="M214 406Q167 406 127 431T62 498T37 588Q37 636 61 677T125 743T214 768Q262 768 302 744T367 679T392 588Q392 541 368 499T303 432T214 406ZM214 444Q253 444 284 464T335 518T354 588Q354 624 336 656T285 709T214
730Q175 730 144 710T94 657T75 588Q75 551 93 518T144 465T214 444Z" />
<glyph unicode="&#xb1;" horiz-adv-x="477" d="M239 168Q232 168 227 173T221 185V328H78Q71 328 66 333T61 345Q61 353 66 358T78 363H221V505Q221 512 226 517T239 523Q247 523 251 518T256 505V363H398Q405 363 410 358T416 345Q416 338 411 333T398 328H256V185Q256
178 252 173T239 168ZM78 68Q71 68 66 73T61 85Q61 93 66 98T78 103H398Q405 103 410 98T416 85Q416 78 411 73T398 68H78Z" />
<glyph unicode="&#xb2;" horiz-adv-x="299" d="M53 365Q48 365 43 368T37 378V426Q37 451 56 471T103 509T160 546T208 586T227 633Q227 657 208 678T149 699Q119 699 100 685T80 640Q80 636 75 632T62 627Q55 627 51 631T46 647Q46 672 59 690T97 720T150 731Q183
731 207 718T246 683T260 634Q260 602 241 578T194 534T138 497T90 463T71 426V396H252Q257 396 261 392T265 381Q265 375 261 370T252 365H53Z" />
<glyph unicode="&#xb3;" horiz-adv-x="306" d="M149 362Q110 362 85 375T47 407T34 445Q34 456 38 459T49 462Q60 462 63 458T67 448Q67 438 74 425T98 403T148 393Q188 393 209 411T231 468V477Q231 512 209 527T149 543Q142 543 139 547T135 557Q135 563 138
567T149 572Q184 572 202 585T220 636Q220 668 204 684T151 700Q120 700 105 691T83 670T77 647Q77 640 73 636T61 631Q51 631 48 635T44 650Q44 664 52 683T84 716T152 731Q197 731 225 711T253 643Q253 609 240 588T207 558Q232 549 248 530T264 477V468Q264
430 249 407T207 373T149 362Z" />
<glyph unicode="&#xb4;" horiz-adv-x="133" d="M19 601Q12 601 6 606T0 619Q0 628 8 632L110 692Q114 694 117 694Q125 694 129 689T133 676Q133 664 123 658L28 604Q26 603 24 602T19 601Z" />
<glyph unicode="&#xb5;" horiz-adv-x="477" d="M94 -237Q87 -237 82 -232T77 -220V454Q77 461 82 466T94 472Q102 472 107 467T112 454V150Q112 134 124 113T156 73T202 42T256 29Q292 29 323 50T372 104T391 174V454Q391 463 396 467T408 472Q415 472 420 468T426
454V174Q426 125 404 84T342 19T254 -6Q204 -6 167 17T112 70V-220Q112 -227 107 -232T94 -237Z" />
<glyph unicode="&#xb6;" horiz-adv-x="512" d="M300 0Q293 0 288 4T282 18V306H234Q179 306 135 326T64 392T38 513V525Q38 600 64 645T134 710T234 731H411Q418 731 423 727T429 713V17Q429 8 424 4T411 0Q404 0 399 4T393 17V695H318V18Q318 9 313 5T300 0Z" />
<glyph unicode="&#xb7;" horiz-adv-x="176" d="M89 264Q73 264 63 275T53 300Q53 315 63 325T89 336Q103 336 113 326T124 300Q124 286 114 275T89 264Z" />
<glyph unicode="&#xb8;" horiz-adv-x="156" d="M74 -207Q62 -207 45 -205T14 -197T0 -183Q0 -180 2 -176T6 -168T12 -165Q17 -165 30 -171T68 -178Q100 -178 111 -166T123 -137Q123 -114 104 -104T53 -92L24 -90L48 9H80L62 -65Q113 -66 134 -87T156 -135Q156
-153 147 -169T119 -196T74 -207Z" />
<glyph unicode="&#xb9;" horiz-adv-x="158" d="M87 365Q80 365 75 368T70 378V674L47 642Q43 636 37 636Q31 636 27 640T23 650Q23 654 26 659T30 665L75 724Q80 731 89 731Q94 731 98 728T103 718V378Q103 371 98 368T87 365Z" />
<glyph unicode="&#xba;" horiz-adv-x="320" d="M160 430Q129 430 103 446T60 489T44 546V616Q44 647 59 673T101 715T160 731Q191 731 217 716T260 674T276 616V546Q276 516 260 490T218 447T160 430ZM160 463Q193 463 216 489T240 546V616Q240 647 217 672T160
697Q126 697 103 672T80 616V546Q80 515 103 489T160 463Z" />
<glyph unicode="&#xbb;" horiz-adv-x="361" d="M205 74Q201 74 197 76T190 82T187 91Q187 96 190 100L286 277L190 455Q187 460 187 464Q187 469 189 472T195 478T203 481Q216 481 220 472L316 294Q318 290 319 286T321 277Q321 273 320 269T316 260L220 83Q215
74 205 74ZM59 74Q55 74 51 76T44 82T41 91Q41 96 44 100L140 277L44 455Q41 460 41 464Q41 469 43 472T49 478T57 481Q70 481 74 472L170 294Q172 290 173 286T175 277Q175 273 174 269T170 260L74 83Q69 74 59 74Z" />
<glyph unicode="&#xbc;" horiz-adv-x="562" d="M87 365Q80 365 75 368T70 378V674L47 642Q43 636 37 636Q31 636 27 640T23 650Q23 654 26 659T30 665L75 724Q80 731 89 731Q94 731 98 728T103 718V378Q103 371 98 368T87 365ZM31 -20Q25 -20 20 -16T15 -5Q15
1 17 4L408 760Q412 768 421 768Q427 768 433 763T439 749Q439 744 436 738L48 -9Q45 -15 41 -17T31 -20ZM479 0Q473 0 468 3T463 13V86H319Q313 86 310 90T306 100Q306 102 308 108L449 355Q452 360 456 363T465 366Q471 366 476 362T482 352Q482 349 480 345L349
118H463V214Q463 220 468 223T479 226Q486 226 491 223T496 214V118H527Q534 118 537 113T541 102Q541 96 537 91T527 86H496V13Q496 6 491 3T479 0Z" />
<glyph unicode="&#xbd;" horiz-adv-x="587" d="M87 365Q80 365 75 368T70 378V674L47 642Q43 636 37 636Q31 636 27 640T23 650Q23 654 26 659T30 665L75 724Q80 731 89 731Q94 731 98 728T103 718V378Q103 371 98 368T87 365ZM31 -20Q25 -20 20 -16T15 -5Q15
1 17 4L408 760Q412 768 421 768Q427 768 433 763T439 749Q439 744 436 738L48 -9Q45 -15 41 -17T31 -20ZM341 0Q336 0 331 3T325 13V61Q325 86 344 106T391 144T448 181T496 221T515 268Q515 292 496 313T437 334Q407 334 388 320T368 275Q368 271 363 267T350
262Q343 262 339 266T334 282Q334 307 347 325T385 355T438 366Q471 366 495 353T534 318T548 269Q548 237 529 213T482 169T426 132T378 98T359 61V31H540Q545 31 549 27T553 16Q553 10 549 5T540 0H341Z" />
<glyph unicode="&#xbe;" horiz-adv-x="710" d="M149 362Q110 362 85 375T47 407T34 445Q34 456 38 459T49 462Q60 462 63 458T67 448Q67 438 74 425T98 403T148 393Q188 393 209 411T231 468V477Q231 512 209 527T149 543Q142 543 139 547T135 557Q135 563 138
567T149 572Q184 572 202 585T220 636Q220 668 204 684T151 700Q120 700 105 691T83 670T77 647Q77 640 73 636T61 631Q51 631 48 635T44 650Q44 664 52 683T84 716T152 731Q197 731 225 711T253 643Q253 609 240 588T207 558Q232 549 248 530T264 477V468Q264
430 249 407T207 373T149 362ZM179 -20Q173 -20 168 -16T163 -5Q163 1 165 4L556 760Q560 768 569 768Q575 768 581 763T587 749Q587 744 584 738L196 -9Q193 -15 189 -17T179 -20ZM627 0Q621 0 616 3T611 13V86H467Q461 86 458 90T454 100Q454 102 456 108L597
355Q600 360 604 363T613 366Q619 366 624 362T630 352Q630 349 628 345L497 118H611V214Q611 220 616 223T627 226Q634 226 639 223T644 214V118H675Q682 118 685 113T689 102Q689 96 685 91T675 86H644V13Q644 6 639 3T627 0Z" />
<glyph unicode="&#xbf;" horiz-adv-x="383" d="M219 -6Q157 -6 117 18T58 84T38 176Q38 227 54 263T93 327T140 376T179 417Q192 434 197 455T204 507T206 578Q206 587 211 591T223 595Q229 595 234 591T240 578Q240 518 236 484T225 430T205 397Q189 378 167
358T123 313T87 255T73 177Q73 109 110 69T223 29Q255 29 275 35T309 49T330 63T344 69Q349 69 353 65T358 52Q358 40 339 27T287 4T219 -6ZM223 676Q209 676 199 686T188 712Q188 726 198 737T223 748Q239 748 249 737T259 712Q259 697 249 687T223 676Z" />
<glyph unicode="&#xc0;" horiz-adv-x="521" d="M43 0Q39 0 35 2T28 7T25 16Q25 20 26 22L243 723Q245 731 250 734T261 737Q267 737 272 734T280 723L495 22Q496 20 496 17Q496 13 493 9T486 3T476 0Q471 0 467 3T460 13L409 177H111L61 13Q59 6 54 3T43 0ZM122
213H398L261 661L122 213ZM308 860Q306 860 304 861T299 863L204 917Q194 923 194 935Q194 942 198 947T210 953Q213 953 217 951L319 891Q327 887 327 878Q327 871 322 866T308 860Z" />
<glyph unicode="&#xc1;" horiz-adv-x="521" d="M43 0Q39 0 35 2T28 7T25 16Q25 20 26 22L243 723Q245 731 250 734T261 737Q267 737 272 734T280 723L495 22Q496 20 496 17Q496 13 493 9T486 3T476 0Q471 0 467 3T460 13L409 177H111L61 13Q59 6 54 3T43 0ZM122
213H398L261 661L122 213ZM213 860Q206 860 200 865T194 878Q194 887 202 891L304 951Q308 953 311 953Q319 953 323 948T327 935Q327 923 317 917L222 863Q220 862 218 861T213 860Z" />
<glyph unicode="&#xc2;" horiz-adv-x="521" d="M43 0Q39 0 35 2T28 7T25 16Q25 20 26 22L243 723Q245 731 250 734T261 737Q267 737 272 734T280 723L495 22Q496 20 496 17Q496 13 493 9T486 3T476 0Q471 0 467 3T460 13L409 177H111L61 13Q59 6 54 3T43 0ZM122
213H398L261 661L122 213ZM149 859Q142 859 137 864T131 878Q131 882 133 886T140 892L244 948Q252 953 261 953Q270 953 278 948L382 893Q387 891 389 886T391 876Q391 869 386 865T374 860Q372 860 370 861T365 863L261 918L157 862Q155 861 153 860T149 859Z"
/>
<glyph unicode="&#xc3;" horiz-adv-x="521" d="M43 0Q39 0 35 2T28 7T25 16Q25 20 26 22L243 723Q245 731 250 734T261 737Q267 737 272 734T280 723L495 22Q496 20 496 17Q496 13 493 9T486 3T476 0Q471 0 467 3T460 13L409 177H111L61 13Q59 6 54 3T43 0ZM122
213H398L261 661L122 213ZM324 878Q300 878 282 887T243 906T195 915Q174 915 161 907T141 889T126 880Q123 880 120 882T115 888T113 897Q113 907 121 916T144 932T173 944T202 949Q227 949 246 940T284 922T329 912Q352 912 363 920T380 936T394 944Q398 944
401 942T406 937T408 929Q408 917 400 908T378 892T351 882T324 878Z" />
<glyph unicode="&#xc4;" horiz-adv-x="521" d="M43 0Q39 0 35 2T28 7T25 16Q25 20 26 22L243 723Q245 731 250 734T261 737Q267 737 272 734T280 723L495 22Q496 20 496 17Q496 13 493 9T486 3T476 0Q471 0 467 3T460 13L409 177H111L61 13Q59 6 54 3T43 0ZM122
213H398L261 661L122 213ZM317 859Q304 859 296 867T287 889Q287 902 295 910T317 918Q330 918 338 910T346 889Q346 876 338 868T317 859ZM206 859Q193 859 185 867T176 889Q176 902 184 910T206 918Q219 918 227 910T235 889Q235 876 227 868T206 859Z" />
<glyph unicode="&#xc5;" horiz-adv-x="521" d="M43 0Q39 0 35 2T28 7T25 16Q25 20 26 22L243 723Q245 731 250 734T261 737Q267 737 272 734T280 723L495 22Q496 20 496 17Q496 13 493 9T486 3T476 0Q471 0 467 3T460 13L409 177H111L61 13Q59 6 54 3T43 0ZM122
213H398L261 661L122 213ZM261 843Q236 843 216 856T183 890T171 936Q171 960 183 980T215 1014T261 1027Q285 1027 305 1015T338 981T351 936Q351 912 339 891T306 856T261 843ZM261 866Q287 866 306 888T326 936Q326 959 307 980T261 1001Q233 1001 214 980T195
936Q195 910 214 888T261 866Z" />
<glyph unicode="&#xc6;" horiz-adv-x="680" d="M97 0Q87 0 83 6T79 23V525Q79 600 105 645T175 710T275 731H635Q644 731 648 726T652 714Q652 707 648 701T635 695H398V384H558Q566 384 570 379T575 365Q575 359 571 354T558 348H398V36H635Q643 36 647 31T652
17Q652 11 648 6T635 0H380Q373 0 368 4T362 18V348H115V23Q115 13 112 7T97 0ZM115 384H362V695H275Q200 695 158 654T115 525V384Z" />
<glyph unicode="&#xc7;" horiz-adv-x="512" d="M272 -6Q219 -6 174 14T103 80T76 200V525Q76 600 103 645T176 710T275 731Q339 731 381 708T445 649T467 574Q467 557 463 552T449 546Q436 546 434 552T431 564Q430 582 424 604T401 647T354 681T274 695Q195 695
154 654T112 525V200Q112 112 154 71T278 30Q328 30 357 43T401 76T422 119T431 161Q432 168 435 173T449 179Q458 179 462 173T467 150Q467 112 445 76T380 17T272 -6ZM305 -207Q293 -207 276 -205T245 -197T231 -183Q231 -180 233 -176T237 -168T243 -165Q248
-165 261 -171T299 -178Q331 -178 342 -166T354 -137Q354 -114 335 -104T284 -92L255 -90L279 9H311L293 -65Q344 -66 365 -87T387 -135Q387 -153 378 -169T350 -196T305 -207Z" />
<glyph unicode="&#xc8;" horiz-adv-x="498" d="M101 0Q94 0 89 4T83 18V713Q83 722 88 726T101 731H457Q466 731 470 726T474 714Q474 707 470 701T457 695H119V384H279Q287 384 291 379T296 365Q296 359 292 354T279 348H119V36H457Q465 36 469 31T474 17Q474
11 470 6T457 0H101ZM327 860Q325 860 323 861T318 863L223 917Q213 923 213 935Q213 942 217 947T229 953Q232 953 236 951L338 891Q346 887 346 878Q346 871 341 866T327 860Z" />
<glyph unicode="&#xc9;" horiz-adv-x="498" d="M101 0Q94 0 89 4T83 18V713Q83 722 88 726T101 731H457Q466 731 470 726T474 714Q474 707 470 701T457 695H119V384H279Q287 384 291 379T296 365Q296 359 292 354T279 348H119V36H457Q465 36 469 31T474 17Q474
11 470 6T457 0H101ZM232 860Q225 860 219 865T213 878Q213 887 221 891L323 951Q327 953 330 953Q338 953 342 948T346 935Q346 923 336 917L241 863Q239 862 237 861T232 860Z" />
<glyph unicode="&#xca;" horiz-adv-x="498" d="M101 0Q94 0 89 4T83 18V713Q83 722 88 726T101 731H457Q466 731 470 726T474 714Q474 707 470 701T457 695H119V384H279Q287 384 291 379T296 365Q296 359 292 354T279 348H119V36H457Q465 36 469 31T474 17Q474
11 470 6T457 0H101ZM168 859Q161 859 156 864T150 878Q150 882 152 886T159 892L263 948Q271 953 280 953Q289 953 297 948L401 893Q406 891 408 886T410 876Q410 869 405 865T393 860Q391 860 389 861T384 863L280 918L176 862Q174 861 172 860T168 859Z" />
<glyph unicode="&#xcb;" horiz-adv-x="498" d="M101 0Q94 0 89 4T83 18V713Q83 722 88 726T101 731H457Q466 731 470 726T474 714Q474 707 470 701T457 695H119V384H279Q287 384 291 379T296 365Q296 359 292 354T279 348H119V36H457Q465 36 469 31T474 17Q474
11 470 6T457 0H101ZM336 859Q323 859 315 867T306 889Q306 902 314 910T336 918Q349 918 357 910T365 889Q365 876 357 868T336 859ZM225 859Q212 859 204 867T195 889Q195 902 203 910T225 918Q238 918 246 910T254 889Q254 876 246 868T225 859Z" />
<glyph unicode="&#xcc;" horiz-adv-x="202" d="M101 0Q94 0 89 4T83 18V714Q83 723 88 727T101 731Q108 731 113 727T119 714V18Q119 9 114 5T101 0ZM148 860Q146 860 144 861T139 863L44 917Q34 923 34 935Q34 942 38 947T50 953Q53 953 57 951L159 891Q167 887
167 878Q167 871 162 866T148 860Z" />
<glyph unicode="&#xcd;" horiz-adv-x="202" d="M101 0Q94 0 89 4T83 18V714Q83 723 88 727T101 731Q108 731 113 727T119 714V18Q119 9 114 5T101 0ZM53 860Q46 860 40 865T34 878Q34 887 42 891L144 951Q148 953 151 953Q159 953 163 948T167 935Q167 923 157
917L62 863Q60 862 58 861T53 860Z" />
<glyph unicode="&#xce;" horiz-adv-x="202" d="M101 0Q94 0 89 4T83 18V714Q83 723 88 727T101 731Q108 731 113 727T119 714V18Q119 9 114 5T101 0ZM-11 859Q-18 859 -23 864T-29 878Q-29 882 -27 886T-20 892L84 948Q92 953 101 953Q110 953 118 948L222 893Q227
891 229 886T231 876Q231 869 226 865T214 860Q212 860 210 861T205 863L101 918L-3 862Q-5 861 -7 860T-11 859Z" />
<glyph unicode="&#xcf;" horiz-adv-x="202" d="M101 0Q94 0 89 4T83 18V714Q83 723 88 727T101 731Q108 731 113 727T119 714V18Q119 9 114 5T101 0ZM157 859Q144 859 136 867T127 889Q127 902 135 910T157 918Q170 918 178 910T186 889Q186 876 178 868T157 859ZM46
859Q33 859 25 867T16 889Q16 902 24 910T46 918Q59 918 67 910T75 889Q75 876 67 868T46 859Z" />
<glyph unicode="&#xd0;" horiz-adv-x="560" d="M111 0Q103 0 98 5T93 17V367H20Q13 367 8 372T3 384Q3 392 8 397T20 402H93V714Q93 721 98 726T111 731H288Q343 731 387 711T458 645T484 525V206Q484 131 458 86T388 21T288 0H111ZM129 36H288Q363 36 405 77T448
206V525Q448 612 406 653T288 695H129V402H260Q267 402 272 397T278 384Q278 377 273 372T260 367H129V36Z" />
<glyph unicode="&#xd1;" horiz-adv-x="557" d="M101 0Q94 0 89 4T83 18V714Q83 724 88 727T101 731Q108 731 114 724T125 709T132 695L438 89V714Q438 723 443 727T456 731Q463 731 468 727T474 714V18Q474 9 469 5T456 0Q446 0 439 13T427 36L119 643V18Q119
9 114 5T101 0ZM342 878Q318 878 300 887T261 906T213 915Q192 915 179 907T159 889T144 880Q141 880 138 882T133 888T131 897Q131 907 139 916T162 932T191 944T220 949Q245 949 264 940T302 922T347 912Q370 912 381 920T398 936T412 944Q416 944 419 942T424
937T426 929Q426 917 418 908T396 892T369 882T342 878Z" />
<glyph unicode="&#xd2;" horiz-adv-x="543" d="M271 -6Q216 -6 172 14T102 80T76 200V525Q76 600 102 645T172 710T271 731Q326 731 370 711T441 645T467 525V200Q467 125 441 80T371 15T271 -6ZM271 30Q346 30 388 71T431 200V525Q431 612 389 653T271 695Q196
695 154 654T112 525V200Q112 113 154 72T271 30ZM319 860Q317 860 315 861T310 863L215 917Q205 923 205 935Q205 942 209 947T221 953Q224 953 228 951L330 891Q338 887 338 878Q338 871 333 866T319 860Z" />
<glyph unicode="&#xd3;" horiz-adv-x="543" d="M271 -6Q216 -6 172 14T102 80T76 200V525Q76 600 102 645T172 710T271 731Q326 731 370 711T441 645T467 525V200Q467 125 441 80T371 15T271 -6ZM271 30Q346 30 388 71T431 200V525Q431 612 389 653T271 695Q196
695 154 654T112 525V200Q112 113 154 72T271 30ZM224 860Q217 860 211 865T205 878Q205 887 213 891L315 951Q319 953 322 953Q330 953 334 948T338 935Q338 923 328 917L233 863Q231 862 229 861T224 860Z" />
<glyph unicode="&#xd4;" horiz-adv-x="543" d="M271 -6Q216 -6 172 14T102 80T76 200V525Q76 600 102 645T172 710T271 731Q326 731 370 711T441 645T467 525V200Q467 125 441 80T371 15T271 -6ZM271 30Q346 30 388 71T431 200V525Q431 612 389 653T271 695Q196
695 154 654T112 525V200Q112 113 154 72T271 30ZM160 859Q153 859 148 864T142 878Q142 882 144 886T151 892L255 948Q263 953 272 953Q281 953 289 948L393 893Q398 891 400 886T402 876Q402 869 397 865T385 860Q383 860 381 861T376 863L272 918L168 862Q166
861 164 860T160 859Z" />
<glyph unicode="&#xd5;" horiz-adv-x="543" d="M271 -6Q216 -6 172 14T102 80T76 200V525Q76 600 102 645T172 710T271 731Q326 731 370 711T441 645T467 525V200Q467 125 441 80T371 15T271 -6ZM271 30Q346 30 388 71T431 200V525Q431 612 389 653T271 695Q196
695 154 654T112 525V200Q112 113 154 72T271 30ZM335 878Q311 878 293 887T254 906T206 915Q185 915 172 907T152 889T137 880Q134 880 131 882T126 888T124 897Q124 907 132 916T155 932T184 944T213 949Q238 949 257 940T295 922T340 912Q363 912 374 920T391
936T405 944Q409 944 412 942T417 937T419 929Q419 917 411 908T389 892T362 882T335 878Z" />
<glyph unicode="&#xd6;" horiz-adv-x="543" d="M271 -6Q216 -6 172 14T102 80T76 200V525Q76 600 102 645T172 710T271 731Q326 731 370 711T441 645T467 525V200Q467 125 441 80T371 15T271 -6ZM271 30Q346 30 388 71T431 200V525Q431 612 389 653T271 695Q196
695 154 654T112 525V200Q112 113 154 72T271 30ZM328 859Q315 859 307 867T298 889Q298 902 306 910T328 918Q341 918 349 910T357 889Q357 876 349 868T328 859ZM217 859Q204 859 196 867T187 889Q187 902 195 910T217 918Q230 918 238 910T246 889Q246 876 238
868T217 859Z" />
<glyph unicode="&#xd7;" horiz-adv-x="393" d="M83 145Q79 145 75 147T69 154T66 162Q66 169 71 174L172 275L71 376Q66 381 66 389Q66 396 71 401T83 406Q91 406 96 401L196 300L297 401Q302 406 310 406Q317 406 322 401T327 389Q327 381 322 376L221 275L322
174Q327 169 327 162Q327 158 325 154T319 148T310 145Q303 145 298 150L196 251L95 150Q90 145 83 145Z" />
<glyph unicode="&#xd8;" horiz-adv-x="543" d="M271 -6Q216 -6 172 14T102 80T76 200V525Q76 600 102 645T172 710T271 731Q326 731 370 711T441 645T467 525V200Q467 125 441 80T371 15T271 -6ZM271 30Q346 30 388 71T431 200V525Q431 612 389 653T271 695Q196
695 154 654T112 525V200Q112 113 154 72T271 30ZM75 -20Q69 -20 64 -16T59 -5Q59 1 61 4L452 760Q456 768 465 768Q471 768 477 763T483 749Q483 744 480 738L92 -9Q89 -15 85 -17T75 -20Z" />
<glyph unicode="&#xd9;" horiz-adv-x="549" d="M274 -6Q219 -6 175 14T105 80T79 200V714Q79 723 84 727T97 731Q104 731 109 727T115 714V200Q115 113 157 72T274 30Q349 30 391 71T434 200V714Q434 723 439 727T452 731Q459 731 464 727T470 714V200Q470 125
444 80T374 15T274 -6ZM322 860Q320 860 318 861T313 863L218 917Q208 923 208 935Q208 942 212 947T224 953Q227 953 231 951L333 891Q341 887 341 878Q341 871 336 866T322 860Z" />
<glyph unicode="&#xda;" horiz-adv-x="549" d="M274 -6Q219 -6 175 14T105 80T79 200V714Q79 723 84 727T97 731Q104 731 109 727T115 714V200Q115 113 157 72T274 30Q349 30 391 71T434 200V714Q434 723 439 727T452 731Q459 731 464 727T470 714V200Q470 125
444 80T374 15T274 -6ZM227 860Q220 860 214 865T208 878Q208 887 216 891L318 951Q322 953 325 953Q333 953 337 948T341 935Q341 923 331 917L236 863Q234 862 232 861T227 860Z" />
<glyph unicode="&#xdb;" horiz-adv-x="549" d="M274 -6Q219 -6 175 14T105 80T79 200V714Q79 723 84 727T97 731Q104 731 109 727T115 714V200Q115 113 157 72T274 30Q349 30 391 71T434 200V714Q434 723 439 727T452 731Q459 731 464 727T470 714V200Q470 125
444 80T374 15T274 -6ZM163 859Q156 859 151 864T145 878Q145 882 147 886T154 892L258 948Q266 953 275 953Q284 953 292 948L396 893Q401 891 403 886T405 876Q405 869 400 865T388 860Q386 860 384 861T379 863L275 918L171 862Q169 861 167 860T163 859Z" />
<glyph unicode="&#xdc;" horiz-adv-x="549" d="M274 -6Q219 -6 175 14T105 80T79 200V714Q79 723 84 727T97 731Q104 731 109 727T115 714V200Q115 113 157 72T274 30Q349 30 391 71T434 200V714Q434 723 439 727T452 731Q459 731 464 727T470 714V200Q470 125
444 80T374 15T274 -6ZM331 859Q318 859 310 867T301 889Q301 902 309 910T331 918Q344 918 352 910T360 889Q360 876 352 868T331 859ZM220 859Q207 859 199 867T190 889Q190 902 198 910T220 918Q233 918 241 910T249 889Q249 876 241 868T220 859Z" />
<glyph unicode="&#xdd;" horiz-adv-x="509" d="M254 0Q247 0 242 4T236 18V273Q236 277 235 279L28 695Q25 701 24 706T22 715Q22 720 24 723T28 729T35 731Q40 731 45 727T55 714L254 313L454 714Q459 723 464 727T474 731Q478 731 480 729T484 724T486 715Q486
711 485 706T481 695L273 279Q272 277 272 273V18Q272 9 267 5T254 0ZM207 860Q200 860 194 865T188 878Q188 887 196 891L298 951Q302 953 305 953Q313 953 317 948T321 935Q321 923 311 917L216 863Q214 862 212 861T207 860Z" />
<glyph unicode="&#xde;" horiz-adv-x="483" d="M101 0Q94 0 89 5T83 18V715Q83 723 88 727T100 731Q108 731 113 727T118 714V542Q135 573 170 595T261 618Q305 618 344 602T407 554T432 473V281Q432 233 407 201T344 151T266 134Q235 134 204 144T150 171T118
212V18Q118 11 113 6T101 0ZM263 169Q296 169 327 181T377 218T397 281V473Q397 511 378 535T328 571T263 583Q225 583 192 569T138 531T118 473V281Q118 254 137 229T188 186T263 169Z" />
<glyph unicode="&#xdf;" horiz-adv-x="528" d="M319 -20Q310 -20 292 -19T255 -13T223 -2T210 16Q210 21 212 24T217 30T225 33Q235 33 253 22T309 11Q374 11 413 58T452 196V215Q452 250 437 289T386 358T284 392Q270 393 262 395T253 408Q253 420 262 423T285
427Q317 429 336 444T365 483T378 531T382 577Q382 650 352 691T259 733Q215 733 189 713T152 660T141 590V17Q141 10 136 5T122 0Q115 0 111 5T106 17V437H25Q18 437 13 442T8 454Q8 462 13 467T25 472H106V590Q106 638 121 678T171 743T259 768Q304 768 340 749T396
691T417 589Q417 553 409 517T385 452T344 413Q377 407 409 379T462 309T484 215V196Q484 121 460 74T398 3T319 -20Z" />
<glyph unicode="&#xe0;" horiz-adv-x="423" d="M174 -6Q116 -6 76 26T35 126Q35 179 64 207T146 247T268 258H324V286Q324 324 311 360T269 419T192 443Q161 443 140 437T107 423T88 416Q80 416 75 423T70 436Q70 446 88 455T135 471T194 478Q256 478 292 451T343
380T359 286V18Q359 11 355 6T342 0Q335 0 330 5T324 18V70Q299 41 262 18T174 -6ZM173 29Q211 29 245 47T302 92T324 139V223H269Q218 223 173 217T99 191T70 126Q70 76 100 53T173 29ZM259 601Q257 601 255 602T250 604L155 658Q145 664 145 676Q145 683 149
688T161 694Q164 694 168 692L270 632Q278 628 278 619Q278 612 273 607T259 601Z" />
<glyph unicode="&#xe1;" horiz-adv-x="423" d="M174 -6Q116 -6 76 26T35 126Q35 179 64 207T146 247T268 258H324V286Q324 324 311 360T269 419T192 443Q161 443 140 437T107 423T88 416Q80 416 75 423T70 436Q70 446 88 455T135 471T194 478Q256 478 292 451T343
380T359 286V18Q359 11 355 6T342 0Q335 0 330 5T324 18V70Q299 41 262 18T174 -6ZM173 29Q211 29 245 47T302 92T324 139V223H269Q218 223 173 217T99 191T70 126Q70 76 100 53T173 29ZM164 601Q157 601 151 606T145 619Q145 628 153 632L255 692Q259 694 262
694Q270 694 274 689T278 676Q278 664 268 658L173 604Q171 603 169 602T164 601Z" />
<glyph unicode="&#xe2;" horiz-adv-x="423" d="M174 -6Q116 -6 76 26T35 126Q35 179 64 207T146 247T268 258H324V286Q324 324 311 360T269 419T192 443Q161 443 140 437T107 423T88 416Q80 416 75 423T70 436Q70 446 88 455T135 471T194 478Q256 478 292 451T343
380T359 286V18Q359 11 355 6T342 0Q335 0 330 5T324 18V70Q299 41 262 18T174 -6ZM173 29Q211 29 245 47T302 92T324 139V223H269Q218 223 173 217T99 191T70 126Q70 76 100 53T173 29ZM100 600Q93 600 88 605T82 619Q82 623 84 627T91 633L195 689Q203 694 212
694Q221 694 229 689L333 634Q338 632 340 627T342 617Q342 610 337 606T325 601Q323 601 321 602T316 604L212 659L108 603Q106 602 104 601T100 600Z" />
<glyph unicode="&#xe3;" horiz-adv-x="423" d="M174 -6Q116 -6 76 26T35 126Q35 179 64 207T146 247T268 258H324V286Q324 324 311 360T269 419T192 443Q161 443 140 437T107 423T88 416Q80 416 75 423T70 436Q70 446 88 455T135 471T194 478Q256 478 292 451T343
380T359 286V18Q359 11 355 6T342 0Q335 0 330 5T324 18V70Q299 41 262 18T174 -6ZM173 29Q211 29 245 47T302 92T324 139V223H269Q218 223 173 217T99 191T70 126Q70 76 100 53T173 29ZM275 619Q251 619 233 628T194 647T146 656Q125 656 112 648T92 630T77 621Q74
621 71 623T66 629T64 638Q64 648 72 657T95 673T124 685T153 690Q178 690 197 681T235 663T280 653Q303 653 314 661T331 677T345 685Q349 685 352 683T357 678T359 670Q359 658 351 649T329 633T302 623T275 619Z" />
<glyph unicode="&#xe4;" horiz-adv-x="423" d="M174 -6Q116 -6 76 26T35 126Q35 179 64 207T146 247T268 258H324V286Q324 324 311 360T269 419T192 443Q161 443 140 437T107 423T88 416Q80 416 75 423T70 436Q70 446 88 455T135 471T194 478Q256 478 292 451T343
380T359 286V18Q359 11 355 6T342 0Q335 0 330 5T324 18V70Q299 41 262 18T174 -6ZM173 29Q211 29 245 47T302 92T324 139V223H269Q218 223 173 217T99 191T70 126Q70 76 100 53T173 29ZM268 600Q255 600 247 608T238 630Q238 643 246 651T268 659Q281 659 289
651T297 630Q297 617 289 609T268 600ZM157 600Q144 600 136 608T127 630Q127 643 135 651T157 659Q170 659 178 651T186 630Q186 617 178 609T157 600Z" />
<glyph unicode="&#xe5;" horiz-adv-x="423" d="M174 -6Q116 -6 76 26T35 126Q35 179 64 207T146 247T268 258H324V286Q324 324 311 360T269 419T192 443Q161 443 140 437T107 423T88 416Q80 416 75 423T70 436Q70 446 88 455T135 471T194 478Q256 478 292 451T343
380T359 286V18Q359 11 355 6T342 0Q335 0 330 5T324 18V70Q299 41 262 18T174 -6ZM173 29Q211 29 245 47T302 92T324 139V223H269Q218 223 173 217T99 191T70 126Q70 76 100 53T173 29ZM212 584Q187 584 167 597T134 631T122 677Q122 701 134 721T166 755T212
768Q236 768 256 756T289 722T302 677Q302 653 290 632T257 597T212 584ZM212 607Q238 607 257 629T277 677Q277 700 258 721T212 742Q184 742 165 721T146 677Q146 651 165 629T212 607Z" />
<glyph unicode="&#xe6;" horiz-adv-x="719" d="M171 -6Q135 -6 104 8T54 51T35 125Q35 179 64 207T145 247T266 258H322V287Q322 325 309 361T267 420T187 444Q159 444 138 438T104 424T85 417Q78 417 73 424T68 437Q68 447 86 456T133 472T192 479Q254 479 290
451T343 378Q365 421 407 449T501 478Q529 478 560 468T618 435T662 375T679 284Q679 259 673 246T649 228T596 223H361V176Q361 108 408 69T526 29Q567 29 589 39T624 60T646 70Q650 70 654 68T661 62T664 52Q664 38 640 25T582 3T514 -6Q459 -6 412 21T341 98Q310
40 263 17T171 -6ZM172 29Q214 29 248 48T302 93T322 139V223H267Q214 223 169 217T97 190T70 124Q70 77 99 53T172 29ZM361 258H584Q624 258 634 265T644 293Q644 331 627 365T577 421T502 443Q462 443 430 424T380 372T361 302V258Z" />
<glyph unicode="&#xe7;" horiz-adv-x="402" d="M235 -6Q173 -6 133 18T72 83T52 176V296Q52 347 71 388T132 454T235 478Q275 478 304 468T350 444T366 419Q366 415 364 411T357 405T348 402Q340 402 329 412T296 433T235 443Q163 443 125 404T87 296V176Q87 108
125 69T236 29Q278 29 300 39T334 60T355 70Q360 70 363 68T369 62T372 53Q372 43 356 29T309 5T235 -6ZM242 -207Q230 -207 213 -205T182 -197T168 -183Q168 -180 170 -176T174 -168T180 -165Q185 -165 198 -171T236 -178Q268 -178 279 -166T291 -137Q291 -114
272 -104T221 -92L192 -90L216 9H248L230 -65Q281 -66 302 -87T324 -135Q324 -153 315 -169T287 -196T242 -207Z" />
<glyph unicode="&#xe8;" horiz-adv-x="445" d="M253 -6Q194 -6 149 17T77 80T51 176V301Q51 349 75 389T140 454T229 478Q276 478 316 455T381 391T406 298Q406 262 394 246T364 227T323 223H86V176Q86 108 134 69T255 29Q297 29 319 39T352 60T373 70Q378 70
382 67T388 60T391 52Q391 43 375 29T327 5T253 -6ZM86 258H311Q348 258 359 265T371 295Q371 331 354 365T304 421T229 443Q189 443 157 423T105 371T86 301V258ZM276 601Q274 601 272 602T267 604L172 658Q162 664 162 676Q162 683 166 688T178 694Q181 694 185
692L287 632Q295 628 295 619Q295 612 290 607T276 601Z" />
<glyph unicode="&#xe9;" horiz-adv-x="445" d="M253 -6Q194 -6 149 17T77 80T51 176V301Q51 349 75 389T140 454T229 478Q276 478 316 455T381 391T406 298Q406 262 394 246T364 227T323 223H86V176Q86 108 134 69T255 29Q297 29 319 39T352 60T373 70Q378 70
382 67T388 60T391 52Q391 43 375 29T327 5T253 -6ZM86 258H311Q348 258 359 265T371 295Q371 331 354 365T304 421T229 443Q189 443 157 423T105 371T86 301V258ZM181 601Q174 601 168 606T162 619Q162 628 170 632L272 692Q276 694 279 694Q287 694 291 689T295
676Q295 664 285 658L190 604Q188 603 186 602T181 601Z" />
<glyph unicode="&#xea;" horiz-adv-x="445" d="M253 -6Q194 -6 149 17T77 80T51 176V301Q51 349 75 389T140 454T229 478Q276 478 316 455T381 391T406 298Q406 262 394 246T364 227T323 223H86V176Q86 108 134 69T255 29Q297 29 319 39T352 60T373 70Q378 70
382 67T388 60T391 52Q391 43 375 29T327 5T253 -6ZM86 258H311Q348 258 359 265T371 295Q371 331 354 365T304 421T229 443Q189 443 157 423T105 371T86 301V258ZM117 600Q110 600 105 605T99 619Q99 623 101 627T108 633L212 689Q220 694 229 694Q238 694 246
689L350 634Q355 632 357 627T359 617Q359 610 354 606T342 601Q340 601 338 602T333 604L229 659L125 603Q123 602 121 601T117 600Z" />
<glyph unicode="&#xeb;" horiz-adv-x="445" d="M253 -6Q194 -6 149 17T77 80T51 176V301Q51 349 75 389T140 454T229 478Q276 478 316 455T381 391T406 298Q406 262 394 246T364 227T323 223H86V176Q86 108 134 69T255 29Q297 29 319 39T352 60T373 70Q378 70
382 67T388 60T391 52Q391 43 375 29T327 5T253 -6ZM86 258H311Q348 258 359 265T371 295Q371 331 354 365T304 421T229 443Q189 443 157 423T105 371T86 301V258ZM285 600Q272 600 264 608T255 630Q255 643 263 651T285 659Q298 659 306 651T314 630Q314 617 306
609T285 600ZM174 600Q161 600 153 608T144 630Q144 643 152 651T174 659Q187 659 195 651T203 630Q203 617 195 609T174 600Z" />
<glyph unicode="&#xec;" horiz-adv-x="171" d="M85 0Q78 0 73 5T68 18V455Q68 463 73 467T85 472Q93 472 98 468T103 455V18Q103 11 98 6T85 0ZM133 601Q131 601 129 602T124 604L29 658Q19 664 19 676Q19 683 23 688T35 694Q38 694 42 692L144 632Q152 628 152
619Q152 612 147 607T133 601Z" />
<glyph unicode="&#xed;" horiz-adv-x="171" d="M85 0Q78 0 73 5T68 18V455Q68 463 73 467T85 472Q93 472 98 468T103 455V18Q103 11 98 6T85 0ZM38 601Q31 601 25 606T19 619Q19 628 27 632L129 692Q133 694 136 694Q144 694 148 689T152 676Q152 664 142 658L47
604Q45 603 43 602T38 601Z" />
<glyph unicode="&#xee;" horiz-adv-x="171" d="M85 0Q78 0 73 5T68 18V455Q68 463 73 467T85 472Q93 472 98 468T103 455V18Q103 11 98 6T85 0ZM230 600Q223 600 218 605T212 619Q212 623 214 627T221 633L325 689Q333 694 342 694Q351 694 359 689L463 634Q468
632 470 627T472 617Q472 610 467 606T455 601Q453 601 451 602T446 604L342 659L238 603Q236 602 234 601T230 600Z" />
<glyph unicode="&#xef;" horiz-adv-x="171" d="M85 0Q78 0 73 5T68 18V455Q68 463 73 467T85 472Q93 472 98 468T103 455V18Q103 11 98 6T85 0ZM142 600Q129 600 121 608T112 630Q112 643 120 651T142 659Q155 659 163 651T171 630Q171 617 163 609T142 600ZM31
600Q18 600 10 608T1 630Q1 643 9 651T31 659Q44 659 52 651T60 630Q60 617 52 609T31 600Z" />
<glyph unicode="&#xf0;" horiz-adv-x="468" d="M227 -6Q191 -6 160 8T103 49T64 107T50 176V298Q50 346 74 387T138 453T227 478Q256 478 285 468T338 439T370 392Q363 475 341 536T287 638L189 582Q185 579 180 579Q173 579 168 585T163 598Q163 608 172 612L264
665Q232 699 196 715T127 731Q121 731 118 736T115 748Q115 753 117 757T124 765T139 768Q174 768 216 747T296 683L376 729Q380 731 383 731Q390 731 395 726T401 714Q401 704 392 699L318 656Q356 606 380 533T405 365V176Q405 129 381 87T316 20T227 -6ZM227
29Q267 29 299 50T350 105T370 176V303Q370 339 351 371T299 423T227 443Q187 443 155 422T104 368T85 298V176Q85 139 104 105T155 50T227 29Z" />
<glyph unicode="&#xf1;" horiz-adv-x="481" d="M85 0Q78 0 73 5T68 18V455Q68 463 73 467T85 472Q93 472 98 468T103 455V402Q120 431 153 454T237 478Q286 478 327 454T392 389T417 298V18Q417 9 412 5T399 0Q393 0 388 4T382 18V298Q382 335 363 368T311 422T240
443Q206 443 175 426T123 376T103 298V18Q103 11 98 6T85 0ZM304 619Q280 619 262 628T223 647T175 656Q154 656 141 648T121 630T106 621Q103 621 100 623T95 629T93 638Q93 648 101 657T124 673T153 685T182 690Q207 690 226 681T264 663T309 653Q332 653 343
661T360 677T374 685Q378 685 381 683T386 678T388 670Q388 658 380 649T358 633T331 623T304 619Z" />
<glyph unicode="&#xf2;" horiz-adv-x="455" d="M227 -6Q180 -6 140 19T75 86T50 176V298Q50 346 74 387T138 453T227 478Q275 478 315 454T380 389T405 298V176Q405 129 381 87T316 20T227 -6ZM227 29Q267 29 299 50T350 105T370 176V298Q370 335 351 368T300
422T227 443Q187 443 155 422T104 368T85 298V176Q85 139 104 105T155 50T227 29ZM275 601Q273 601 271 602T266 604L171 658Q161 664 161 676Q161 683 165 688T177 694Q180 694 184 692L286 632Q294 628 294 619Q294 612 289 607T275 601Z" />
<glyph unicode="&#xf3;" horiz-adv-x="455" d="M227 -6Q180 -6 140 19T75 86T50 176V298Q50 346 74 387T138 453T227 478Q275 478 315 454T380 389T405 298V176Q405 129 381 87T316 20T227 -6ZM227 29Q267 29 299 50T350 105T370 176V298Q370 335 351 368T300
422T227 443Q187 443 155 422T104 368T85 298V176Q85 139 104 105T155 50T227 29ZM180 601Q173 601 167 606T161 619Q161 628 169 632L271 692Q275 694 278 694Q286 694 290 689T294 676Q294 664 284 658L189 604Q187 603 185 602T180 601Z" />
<glyph unicode="&#xf4;" horiz-adv-x="455" d="M227 -6Q180 -6 140 19T75 86T50 176V298Q50 346 74 387T138 453T227 478Q275 478 315 454T380 389T405 298V176Q405 129 381 87T316 20T227 -6ZM227 29Q267 29 299 50T350 105T370 176V298Q370 335 351 368T300
422T227 443Q187 443 155 422T104 368T85 298V176Q85 139 104 105T155 50T227 29ZM116 600Q109 600 104 605T98 619Q98 623 100 627T107 633L211 689Q219 694 228 694Q237 694 245 689L349 634Q354 632 356 627T358 617Q358 610 353 606T341 601Q339 601 337 602T332
604L228 659L124 603Q122 602 120 601T116 600Z" />
<glyph unicode="&#xf5;" horiz-adv-x="455" d="M227 -6Q180 -6 140 19T75 86T50 176V298Q50 346 74 387T138 453T227 478Q275 478 315 454T380 389T405 298V176Q405 129 381 87T316 20T227 -6ZM227 29Q267 29 299 50T350 105T370 176V298Q370 335 351 368T300
422T227 443Q187 443 155 422T104 368T85 298V176Q85 139 104 105T155 50T227 29ZM291 619Q267 619 249 628T210 647T162 656Q141 656 128 648T108 630T93 621Q90 621 87 623T82 629T80 638Q80 648 88 657T111 673T140 685T169 690Q194 690 213 681T251 663T296
653Q319 653 330 661T347 677T361 685Q365 685 368 683T373 678T375 670Q375 658 367 649T345 633T318 623T291 619Z" />
<glyph unicode="&#xf6;" horiz-adv-x="455" d="M227 -6Q180 -6 140 19T75 86T50 176V298Q50 346 74 387T138 453T227 478Q275 478 315 454T380 389T405 298V176Q405 129 381 87T316 20T227 -6ZM227 29Q267 29 299 50T350 105T370 176V298Q370 335 351 368T300
422T227 443Q187 443 155 422T104 368T85 298V176Q85 139 104 105T155 50T227 29ZM284 600Q271 600 263 608T254 630Q254 643 262 651T284 659Q297 659 305 651T313 630Q313 617 305 609T284 600ZM173 600Q160 600 152 608T143 630Q143 643 151 651T173 659Q186
659 194 651T202 630Q202 617 194 609T173 600Z" />
<glyph unicode="&#xf7;" horiz-adv-x="461" d="M70 267Q63 267 58 272T53 284Q53 292 58 297T70 302H390Q397 302 402 297T408 284Q408 277 403 272T390 267H70ZM227 81Q209 81 196 94T183 124Q183 141 196 154T227 167Q244 167 257 154T270 124Q270 107 257 94T227
81ZM227 402Q209 402 196 415T183 445Q183 462 196 475T227 488Q244 488 257 475T270 445Q270 428 257 415T227 402Z" />
<glyph unicode="&#xf8;" horiz-adv-x="455" d="M227 -6Q180 -6 140 19T75 86T50 176V298Q50 346 74 387T138 453T227 478Q275 478 315 454T380 389T405 298V176Q405 129 381 87T316 20T227 -6ZM227 29Q267 29 299 50T350 105T370 176V298Q370 335 351 368T300
422T227 443Q187 443 155 422T104 368T85 298V176Q85 139 104 105T155 50T227 29ZM94 -32Q88 -32 83 -28T78 -17Q78 -11 80 -8L107 45L316 453L341 501Q345 509 354 509Q360 509 366 504T372 490Q372 485 369 479L344 432L134 23L111 -21Q106 -32 94 -32Z" />
<glyph unicode="&#xf9;" horiz-adv-x="483" d="M242 -6Q193 -6 153 19T88 85T64 174V454Q64 461 69 466T82 472Q89 472 94 467T99 454V174Q99 137 118 104T169 50T242 29Q282 29 314 49T365 103T384 174V455Q384 462 389 467T402 472Q410 472 414 467T419 455V174Q419
126 395 85T331 19T242 -6ZM289 601Q287 601 285 602T280 604L185 658Q175 664 175 676Q175 683 179 688T191 694Q194 694 198 692L300 632Q308 628 308 619Q308 612 303 607T289 601Z" />
<glyph unicode="&#xfa;" horiz-adv-x="483" d="M242 -6Q193 -6 153 19T88 85T64 174V454Q64 461 69 466T82 472Q89 472 94 467T99 454V174Q99 137 118 104T169 50T242 29Q282 29 314 49T365 103T384 174V455Q384 462 389 467T402 472Q410 472 414 467T419 455V174Q419
126 395 85T331 19T242 -6ZM194 601Q187 601 181 606T175 619Q175 628 183 632L285 692Q289 694 292 694Q300 694 304 689T308 676Q308 664 298 658L203 604Q201 603 199 602T194 601Z" />
<glyph unicode="&#xfb;" horiz-adv-x="483" d="M242 -6Q193 -6 153 19T88 85T64 174V454Q64 461 69 466T82 472Q89 472 94 467T99 454V174Q99 137 118 104T169 50T242 29Q282 29 314 49T365 103T384 174V455Q384 462 389 467T402 472Q410 472 414 467T419 455V174Q419
126 395 85T331 19T242 -6ZM130 600Q123 600 118 605T112 619Q112 623 114 627T121 633L225 689Q233 694 242 694Q251 694 259 689L363 634Q368 632 370 627T372 617Q372 610 367 606T355 601Q353 601 351 602T346 604L242 659L138 603Q136 602 134 601T130 600Z"
/>
<glyph unicode="&#xfc;" horiz-adv-x="483" d="M242 -6Q193 -6 153 19T88 85T64 174V454Q64 461 69 466T82 472Q89 472 94 467T99 454V174Q99 137 118 104T169 50T242 29Q282 29 314 49T365 103T384 174V455Q384 462 389 467T402 472Q410 472 414 467T419 455V174Q419
126 395 85T331 19T242 -6ZM298 600Q285 600 277 608T268 630Q268 643 276 651T298 659Q311 659 319 651T327 630Q327 617 319 609T298 600ZM187 600Q174 600 166 608T157 630Q157 643 165 651T187 659Q200 659 208 651T216 630Q216 617 208 609T187 600Z" />
<glyph unicode="&#xfd;" horiz-adv-x="395" d="M36 -237Q29 -237 24 -232T19 -220Q19 -213 22 -208T34 -202Q61 -202 82 -183T121 -131T153 -61T180 13L20 455Q18 459 18 461Q18 466 20 469T27 475T37 478Q42 478 47 475T53 467L198 67L342 467Q344 472 348 475T358
478Q363 478 367 476T373 471T376 461Q376 457 375 455L215 13Q202 -24 185 -67T147 -149T98 -212T36 -237ZM150 601Q143 601 137 606T131 619Q131 628 139 632L241 692Q245 694 248 694Q256 694 260 689T264 676Q264 664 254 658L159 604Q157 603 155 602T150
601Z" />
<glyph unicode="&#xfe;" horiz-adv-x="468" d="M86 -237Q79 -237 74 -232T69 -219V751Q69 759 74 763T86 768Q94 768 99 764T104 751V402Q121 431 154 454T238 478Q287 478 328 454T393 389T418 298V176Q418 129 394 87T329 20T240 -6Q194 -6 158 16T104 70V-219Q104
-226 99 -231T86 -237ZM242 29Q280 29 312 50T363 105T383 176V298Q383 335 364 368T312 422T241 443Q207 443 176 426T124 376T104 298V139Q104 122 122 96T171 50T242 29Z" />
<glyph unicode="&#xff;" horiz-adv-x="395" d="M36 -237Q29 -237 24 -232T19 -220Q19 -213 22 -208T34 -202Q61 -202 82 -183T121 -131T153 -61T180 13L20 455Q18 459 18 461Q18 466 20 469T27 475T37 478Q42 478 47 475T53 467L198 67L342 467Q344 472 348 475T358
478Q363 478 367 476T373 471T376 461Q376 457 375 455L215 13Q202 -24 185 -67T147 -149T98 -212T36 -237ZM254 600Q241 600 233 608T224 630Q224 643 232 651T254 659Q267 659 275 651T283 630Q283 617 275 609T254 600ZM143 600Q130 600 122 608T113 630Q113
643 121 651T143 659Q156 659 164 651T172 630Q172 617 164 609T143 600Z" />
<glyph unicode="&#x2013;" horiz-adv-x="455" d="M67 223Q60 223 55 228T50 240Q50 248 55 253T67 258H387Q394 258 399 253T405 240Q405 233 400 228T387 223H67Z" />
<glyph unicode="&#x2014;" horiz-adv-x="735" d="M67 223Q60 223 55 228T50 240Q50 248 55 253T67 258H667Q674 258 679 253T685 240Q685 233 680 228T667 223H67Z" />
<glyph unicode="&#x2018;" horiz-adv-x="150" d="M74 598Q60 598 50 608T39 634Q39 640 42 651T49 676T60 704T72 731Q74 736 78 738T86 741Q92 741 97 737T102 726Q102 722 101 720L83 669Q95 666 102 656T110 634Q110 619 100 609T74 598Z" />
<glyph unicode="&#x2019;" horiz-adv-x="148" d="M65 598Q59 598 54 602T49 613Q49 617 50 619L68 670Q56 673 49 683T41 705Q41 720 51 730T77 741Q91 741 101 731T112 705Q112 699 109 688T102 663T91 635T79 608Q77 604 73 601T65 598Z" />
<glyph unicode="&#x201a;" horiz-adv-x="162" d="M69 -77Q63 -77 58 -73T53 -62Q53 -58 54 -56L72 -5Q60 -2 53 8T45 30Q45 45 55 55T81 66Q95 66 105 56T116 30Q116 24 113 13T106 -12T95 -40T83 -67Q81 -71 77 -74T69 -77Z" />
<glyph unicode="&#x201c;" horiz-adv-x="284" d="M208 598Q194 598 184 608T173 634Q173 640 176 651T183 676T194 704T206 731Q208 736 212 738T220 741Q226 741 231 737T236 726Q236 722 235 720L217 669Q229 666 236 656T244 634Q244 619 234 609T208 598ZM74
598Q60 598 50 608T39 634Q39 640 42 651T49 676T60 704T72 731Q74 736 78 738T86 741Q92 741 97 737T102 726Q102 722 101 720L83 669Q95 666 102 656T110 634Q110 619 100 609T74 598Z" />
<glyph unicode="&#x201d;" horiz-adv-x="282" d="M199 598Q193 598 188 602T183 613Q183 617 184 619L202 670Q190 673 183 683T175 705Q175 720 185 730T211 741Q225 741 235 731T246 705Q246 699 243 688T236 663T225 635T213 608Q211 604 207 601T199 598ZM65
598Q59 598 54 602T49 613Q49 617 50 619L68 670Q56 673 49 683T41 705Q41 720 51 730T77 741Q91 741 101 731T112 705Q112 699 109 688T102 663T91 635T79 608Q77 604 73 601T65 598Z" />
<glyph unicode="&#x201e;" horiz-adv-x="296" d="M203 -77Q197 -77 192 -73T187 -62Q187 -58 188 -56L206 -5Q194 -2 187 8T179 30Q179 45 189 55T215 66Q229 66 239 56T250 30Q250 24 247 13T240 -12T229 -40T217 -67Q215 -71 211 -74T203 -77ZM69 -77Q63 -77
58 -73T53 -62Q53 -58 54 -56L72 -5Q60 -2 53 8T45 30Q45 45 55 55T81 66Q95 66 105 56T116 30Q116 24 113 13T106 -12T95 -40T83 -67Q81 -71 77 -74T69 -77Z" />
<glyph unicode="&#x2022;" horiz-adv-x="304" d="M152 206Q126 206 104 219T69 253T56 300Q56 325 69 346T104 380T152 393Q178 393 199 380T234 346T247 300Q247 275 234 254T200 219T152 206Z" />
<glyph unicode="&#x2039;" horiz-adv-x="215" d="M156 74Q146 74 141 83L45 260Q43 264 42 268T40 277Q40 282 41 286T45 294L141 472Q146 481 158 481Q163 481 166 479T172 473T174 464Q174 460 171 455L75 277L171 100Q174 96 174 91Q174 86 172 82T165 76T156 74Z" />
<glyph unicode="&#x203a;" horiz-adv-x="215" d="M59 74Q55 74 51 76T44 82T41 91Q41 96 44 100L140 277L44 455Q41 460 41 464Q41 469 43 472T49 478T57 481Q70 481 74 472L170 294Q172 290 173 286T175 277Q175 273 174 269T170 260L74 83Q69 74 59 74Z" />
</font>
</defs>
</svg>
